  0
SECTION
  2
HEADER
  9
$ACADVER
  1
AC1027
  9
$ACADMAINTVER
 70
   105
  9
$DWGCODEPAGE
  3
ANSI_1252
  9
$LASTSAVEDBY
  1
betzj
  9
$REQUIREDVERSIONS
160
                 0
  9
$INSBASE
 10
0.0
 20
0.0
 30
0.0
  9
$EXTMIN
 10
2566.549106967057
 20
-635.5686191677087
 30
-176.5050807568871
  9
$EXTMAX
 10
2763.549106967057
 20
-364.5686191677087
 30
548.639990234375
  9
$LIMMIN
 10
0.0
 20
0.0
  9
$LIMMAX
 10
420.0
 20
297.0
  9
$ORTHOMODE
 70
     0
  9
$REGENMODE
 70
     1
  9
$FILLMODE
 70
     1
  9
$QTEXTMODE
 70
     0
  9
$MIRRTEXT
 70
     1
  9
$LTSCALE
 40
1.0
  9
$ATTMODE
 70
     1
  9
$TEXTSIZE
 40
2.5
  9
$TRACEWID
 40
1.0
  9
$TEXTSTYLE
  7
Standard
  9
$CLAYER
  8
0
  9
$CELTYPE
  6
Continuous
  9
$CECOLOR
 62
   256
  9
$CELTSCALE
 40
1.0
  9
$DISPSILH
 70
     0
  9
$DIMSCALE
 40
1.0
  9
$DIMASZ
 40
2.5
  9
$DIMEXO
 40
0.625
  9
$DIMDLI
 40
3.75
  9
$DIMRND
 40
0.0
  9
$DIMDLE
 40
0.0
  9
$DIMEXE
 40
1.25
  9
$DIMTP
 40
0.0
  9
$DIMTM
 40
0.0
  9
$DIMTXT
 40
2.5
  9
$DIMCEN
 40
2.5
  9
$DIMTSZ
 40
0.0
  9
$DIMTOL
 70
     0
  9
$DIMLIM
 70
     0
  9
$DIMTIH
 70
     0
  9
$DIMTOH
 70
     0
  9
$DIMSE1
 70
     0
  9
$DIMSE2
 70
     0
  9
$DIMTAD
 70
     1
  9
$DIMZIN
 70
     8
  9
$DIMBLK
  1

  9
$DIMASO
 70
     1
  9
$DIMSHO
 70
     1
  9
$DIMPOST
  1

  9
$DIMAPOST
  1

  9
$DIMALT
 70
     0
  9
$DIMALTD
 70
     3
  9
$DIMALTF
 40
0.03937007874016
  9
$DIMLFAC
 40
1.0
  9
$DIMTOFL
 70
     1
  9
$DIMTVP
 40
0.0
  9
$DIMTIX
 70
     0
  9
$DIMSOXD
 70
     1
  9
$DIMSAH
 70
     0
  9
$DIMBLK1
  1

  9
$DIMBLK2
  1

  9
$DIMSTYLE
  2
ISO-25
  9
$DIMCLRD
 70
     0
  9
$DIMCLRE
 70
     0
  9
$DIMCLRT
 70
     0
  9
$DIMTFAC
 40
1.0
  9
$DIMGAP
 40
0.625
  9
$DIMJUST
 70
     0
  9
$DIMSD1
 70
     0
  9
$DIMSD2
 70
     0
  9
$DIMTOLJ
 70
     0
  9
$DIMTZIN
 70
     8
  9
$DIMALTZ
 70
     0
  9
$DIMALTTZ
 70
     0
  9
$DIMUPT
 70
     0
  9
$DIMDEC
 70
     2
  9
$DIMTDEC
 70
     2
  9
$DIMALTU
 70
     2
  9
$DIMALTTD
 70
     3
  9
$DIMTXSTY
  7
Standard
  9
$DIMAUNIT
 70
     0
  9
$DIMADEC
 70
     0
  9
$DIMALTRND
 40
0.0
  9
$DIMAZIN
 70
     0
  9
$DIMDSEP
 70
    44
  9
$DIMATFIT
 70
     3
  9
$DIMFRAC
 70
     0
  9
$DIMLDRBLK
  1

  9
$DIMLUNIT
 70
     2
  9
$DIMLWD
 70
    -2
  9
$DIMLWE
 70
    -2
  9
$DIMTMOVE
 70
     2
  9
$DIMFXL
 40
1.0
  9
$DIMFXLON
 70
     0
  9
$DIMJOGANG
 40
0.7853981633974483
  9
$DIMTFILL
 70
     0
  9
$DIMTFILLCLR
 70
     0
  9
$DIMARCSYM
 70
     0
  9
$DIMLTYPE
  6

  9
$DIMLTEX1
  6

  9
$DIMLTEX2
  6

  9
$DIMTXTDIRECTION
 70
     0
  9
$LUNITS
 70
     2
  9
$LUPREC
 70
     4
  9
$SKETCHINC
 40
1.0
  9
$FILLETRAD
 40
0.0
  9
$AUNITS
 70
     0
  9
$AUPREC
 70
     0
  9
$MENU
  1
.
  9
$ELEVATION
 40
0.0
  9
$PELEVATION
 40
0.0
  9
$THICKNESS
 40
0.0
  9
$LIMCHECK
 70
     0
  9
$CHAMFERA
 40
0.0
  9
$CHAMFERB
 40
0.0
  9
$CHAMFERC
 40
0.0
  9
$CHAMFERD
 40
0.0
  9
$SKPOLY
 70
     0
  9
$TDCREATE
 40
2459569.483873831
  9
$TDUCREATE
 40
2459568.942207164
  9
$TDUPDATE
 40
2459569.48387544
  9
$TDUUPDATE
 40
2459568.942208773
  9
$TDINDWG
 40
0.0000000116
  9
$TDUSRTIMER
 40
0.0000000116
  9
$USRTIMER
 70
     1
  9
$ANGBASE
 50
0.0
  9
$ANGDIR
 70
     0
  9
$PDMODE
 70
     0
  9
$PDSIZE
 40
0.0
  9
$PLINEWID
 40
0.0
  9
$SPLFRAME
 70
     0
  9
$SPLINETYPE
 70
     6
  9
$SPLINESEGS
 70
     8
  9
$HANDSEED
  5
368
  9
$SURFTAB1
 70
     6
  9
$SURFTAB2
 70
     6
  9
$SURFTYPE
 70
     6
  9
$SURFU
 70
     6
  9
$SURFV
 70
     6
  9
$UCSBASE
  2

  9
$UCSNAME
  2

  9
$UCSORG
 10
0.0
 20
0.0
 30
0.0
  9
$UCSXDIR
 10
1.0
 20
0.0
 30
0.0
  9
$UCSYDIR
 10
0.0
 20
1.0
 30
0.0
  9
$UCSORTHOREF
  2

  9
$UCSORTHOVIEW
 70
     0
  9
$UCSORGTOP
 10
0.0
 20
0.0
 30
0.0
  9
$UCSORGBOTTOM
 10
0.0
 20
0.0
 30
0.0
  9
$UCSORGLEFT
 10
0.0
 20
0.0
 30
0.0
  9
$UCSORGRIGHT
 10
0.0
 20
0.0
 30
0.0
  9
$UCSORGFRONT
 10
0.0
 20
0.0
 30
0.0
  9
$UCSORGBACK
 10
0.0
 20
0.0
 30
0.0
  9
$PUCSBASE
  2

  9
$PUCSNAME
  2

  9
$PUCSORG
 10
0.0
 20
0.0
 30
0.0
  9
$PUCSXDIR
 10
1.0
 20
0.0
 30
0.0
  9
$PUCSYDIR
 10
0.0
 20
1.0
 30
0.0
  9
$PUCSORTHOREF
  2

  9
$PUCSORTHOVIEW
 70
     0
  9
$PUCSORGTOP
 10
0.0
 20
0.0
 30
0.0
  9
$PUCSORGBOTTOM
 10
0.0
 20
0.0
 30
0.0
  9
$PUCSORGLEFT
 10
0.0
 20
0.0
 30
0.0
  9
$PUCSORGRIGHT
 10
0.0
 20
0.0
 30
0.0
  9
$PUCSORGFRONT
 10
0.0
 20
0.0
 30
0.0
  9
$PUCSORGBACK
 10
0.0
 20
0.0
 30
0.0
  9
$USERI1
 70
     0
  9
$USERI2
 70
     0
  9
$USERI3
 70
     0
  9
$USERI4
 70
     0
  9
$USERI5
 70
     0
  9
$USERR1
 40
0.0
  9
$USERR2
 40
0.0
  9
$USERR3
 40
0.0
  9
$USERR4
 40
0.0
  9
$USERR5
 40
0.0
  9
$WORLDVIEW
 70
     1
  9
$SHADEDGE
 70
     3
  9
$SHADEDIF
 70
    70
  9
$TILEMODE
 70
     1
  9
$MAXACTVP
 70
    64
  9
$PINSBASE
 10
0.0
 20
0.0
 30
0.0
  9
$PLIMCHECK
 70
     0
  9
$PEXTMIN
 10
-5.730400000000003
 20
-7.876400000000018
 30
0.0
  9
$PEXTMAX
 10
203.3304
 20
279.4764
 30
0.0
  9
$PLIMMIN
 10
-20.0
 20
-7.5
  9
$PLIMMAX
 10
277.0
 20
202.5
  9
$UNITMODE
 70
     0
  9
$VISRETAIN
 70
     1
  9
$PLINEGEN
 70
     0
  9
$PSLTSCALE
 70
     0
  9
$TREEDEPTH
 70
  3020
  9
$CMLSTYLE
  2
Standard
  9
$CMLJUST
 70
     0
  9
$CMLSCALE
 40
20.0
  9
$PROXYGRAPHICS
 70
     1
  9
$MEASUREMENT
 70
     1
  9
$CELWEIGHT
370
    -1
  9
$ENDCAPS
280
     0
  9
$JOINSTYLE
280
     0
  9
$LWDISPLAY
290
     0
  9
$INSUNITS
 70
     4
  9
$HYPERLINKBASE
  1

  9
$STYLESHEET
  1

  9
$XEDIT
290
     1
  9
$CEPSNTYPE
380
     3
  9
$CEPSNID
390
5F
  9
$PSTYLEMODE
290
     0
  9
$FINGERPRINTGUID
  2
{e5f6db05-1923-445a-ba6a-27944429ea5c}
  9
$VERSIONGUID
  2
{FAEB1C32-E019-11D5-929B-00C0DF256EC4}
  9
$EXTNAMES
290
     1
  9
$PSVPSCALE
 40
0.0
  9
$OLESTARTUP
290
     0
  9
$SORTENTS
280
   127
  9
$INDEXCTL
280
     0
  9
$HIDETEXT
280
     1
  9
$XCLIPFRAME
280
     2
  9
$HALOGAP
280
     0
  9
$OBSCOLOR
 70
   257
  9
$OBSLTYPE
280
     0
  9
$INTERSECTIONDISPLAY
280
     0
  9
$INTERSECTIONCOLOR
 70
   257
  9
$DIMASSOC
280
     2
  9
$PROJECTNAME
  1

  9
$CAMERADISPLAY
290
     0
  9
$LENSLENGTH
 40
50.0
  9
$CAMERAHEIGHT
 40
0.0
  9
$STEPSPERSEC
 40
2.0
  9
$STEPSIZE
 40
6.0
  9
$3DDWFPREC
 40
2.0
  9
$PSOLWIDTH
 40
5.0
  9
$PSOLHEIGHT
 40
80.0
  9
$LOFTANG1
 40
1.570796326794897
  9
$LOFTANG2
 40
1.570796326794897
  9
$LOFTMAG1
 40
0.0
  9
$LOFTMAG2
 40
0.0
  9
$LOFTPARAM
 70
     7
  9
$LOFTNORMALS
280
     1
  9
$LATITUDE
 40
37.795
  9
$LONGITUDE
 40
-122.394
  9
$NORTHDIRECTION
 40
0.0
  9
$TIMEZONE
 70
 -8000
  9
$LIGHTGLYPHDISPLAY
280
     1
  9
$TILEMODELIGHTSYNCH
280
     1
  9
$CMATERIAL
347
44
  9
$SOLIDHIST
280
     0
  9
$SHOWHIST
280
     1
  9
$DWFFRAME
280
     2
  9
$DGNFRAME
280
     2
  9
$REALWORLDSCALE
290
     1
  9
$INTERFERECOLOR
 62
   256
  9
$CSHADOW
280
     0
  9
$SHADOWPLANELOCATION
 40
0.0
  0
ENDSEC
  0
SECTION
  2
CLASSES
  0
CLASS
  1
ACDBDICTIONARYWDFLT
  2
AcDbDictionaryWithDefault
  3
ObjectDBX Classes
 90
        0
 91
        3
280
     0
281
     0
  0
CLASS
  1
VISUALSTYLE
  2
AcDbVisualStyle
  3
ObjectDBX Classes
 90
     4095
 91
        3
280
     0
281
     0
  0
CLASS
  1
MATERIAL
  2
AcDbMaterial
  3
ObjectDBX Classes
 90
     1153
 91
        3
280
     0
281
     0
  0
CLASS
  1
SCALE
  2
AcDbScale
  3
ObjectDBX Classes
 90
     1153
 91
        3
280
     0
281
     0
  0
CLASS
  1
TABLESTYLE
  2
AcDbTableStyle
  3
ObjectDBX Classes
 90
     4095
 91
        3
280
     0
281
     0
  0
CLASS
  1
MLEADERSTYLE
  2
AcDbMLeaderStyle
  3
ACDB_MLEADERSTYLE_CLASS
 90
     4095
 91
        3
280
     0
281
     0
  0
CLASS
  1
SUN
  2
AcDbSun
  3
SCENEOE
 90
     1153
 91
        3
280
     0
281
     0
  0
CLASS
  1
RASTERVARIABLES
  2
AcDbRasterVariables
  3
ISM
 90
        0
 91
        3
280
     0
281
     0
  0
CLASS
  1
WIPEOUTVARIABLES
  2
AcDbWipeoutVariables
  3
WipeOut|AutoCAD Express Tool|expresstools@autodesk.com
 90
        0
 91
        3
280
     0
281
     0
  0
CLASS
  1
PLOTSETTINGS
  2
AcDbPlotSettings
  3
ObjectDBX Classes
 90
        0
 91
        3
280
     0
281
     0
  0
CLASS
  1
WIPEOUT
  2
AcDbWipeout
  3
WipeOut|AutoCAD Express Tool|expresstools@autodesk.com
 90
      127
 91
        3
280
     0
281
     1
  0
CLASS
  1
DICTIONARYVAR
  2
AcDbDictionaryVar
  3
ObjectDBX Classes
 90
        0
 91
        3
280
     0
281
     0
  0
CLASS
  1
CELLSTYLEMAP
  2
AcDbCellStyleMap
  3
ObjectDBX Classes
 90
     1152
 91
        3
280
     0
281
     0
  0
ENDSEC
  0
SECTION
  2
TABLES
  0
TABLE
  2
VPORT
  5
8
330
0
100
AcDbSymbolTable
 70
     1
  0
VPORT
  5
29
330
8
100
AcDbSymbolTableRecord
100
AcDbViewportTableRecord
  2
*Active
 70
     0
 10
0.0
 20
0.0
 11
1.0
 21
1.0
 12
344.1869158878504
 22
148.5
 13
0.0
 23
0.0
 14
10.0
 24
10.0
 15
10.0
 25
10.0
 16
0.0
 26
0.0
 36
1.0
 17
0.0
 27
0.0
 37
0.0
 40
297.0
 41
1.972972972850329
 42
50.0
 43
0.0
 44
0.0
 50
0.0
 51
0.0
 71
     0
 72
   100
 73
     1
 74
     3
 75
     0
 76
     0
 77
     0
 78
     0
281
     0
 65
     1
110
0.0
120
0.0
130
0.0
111
1.0
121
0.0
131
0.0
112
0.0
122
1.0
132
0.0
 79
     0
146
0.0
348
2F
 60
     3
 61
     5
292
     1
282
     1
141
0.0
142
0.0
 63
   250
361
5D
  0
ENDTAB
  0
TABLE
  2
LTYPE
  5
5
330
0
100
AcDbSymbolTable
 70
     2
  0
LTYPE
  5
14
330
5
100
AcDbSymbolTableRecord
100
AcDbLinetypeTableRecord
  2
ByBlock
 70
     0
  3

 72
    65
 73
     0
 40
0.0
  0
LTYPE
  5
15
330
5
100
AcDbSymbolTableRecord
100
AcDbLinetypeTableRecord
  2
ByLayer
 70
     0
  3

 72
    65
 73
     0
 40
0.0
  0
LTYPE
  5
16
330
5
100
AcDbSymbolTableRecord
100
AcDbLinetypeTableRecord
  2
Continuous
 70
     0
  3
Solid line
 72
    65
 73
     0
 40
0.0
  0
LTYPE
  5
16F
330
5
100
AcDbSymbolTableRecord
100
AcDbLinetypeTableRecord
  2
CADWORK_3
 70
     0
  3

 72
    65
 73
     2
 40
4.0
 49
2.0
 74
     0
 49
-2.0
 74
     0
  0
ENDTAB
  0
TABLE
  2
LAYER
  5
2
330
0
100
AcDbSymbolTable
 70
    14
  0
LAYER
  5
10
330
2
100
AcDbSymbolTableRecord
100
AcDbLayerTableRecord
  2
0
 70
     0
 62
     7
  6
Continuous
370
    -3
390
F
347
46
348
0
  0
LAYER
  5
67
330
2
100
AcDbSymbolTableRecord
100
AcDbLayerTableRecord
  2
Sc.1_1
 70
     0
 62
     7
  6
Continuous
370
    -3
390
F
347
46
348
0
  0
LAYER
  5
68
330
2
100
AcDbSymbolTableRecord
100
AcDbLayerTableRecord
  2
Sc.1_2
 70
     0
 62
     7
  6
Continuous
370
    -3
390
F
347
46
348
0
  0
LAYER
  5
69
330
2
100
AcDbSymbolTableRecord
100
AcDbLayerTableRecord
  2
Sc.1_5
 70
     0
 62
     7
  6
Continuous
370
    -3
390
F
347
46
348
0
  0
LAYER
  5
6A
330
2
100
AcDbSymbolTableRecord
100
AcDbLayerTableRecord
  2
Sc.1_10
 70
     0
 62
     7
  6
Continuous
370
    -3
390
F
347
46
348
0
  0
LAYER
  5
6B
330
2
100
AcDbSymbolTableRecord
100
AcDbLayerTableRecord
  2
Sc.1_20
 70
     0
 62
     7
  6
Continuous
370
    -3
390
F
347
46
348
0
  0
LAYER
  5
6C
330
2
100
AcDbSymbolTableRecord
100
AcDbLayerTableRecord
  2
Sc.1_25
 70
     0
 62
     7
  6
Continuous
370
    -3
390
F
347
46
348
0
  0
LAYER
  5
6D
330
2
100
AcDbSymbolTableRecord
100
AcDbLayerTableRecord
  2
Sc.1_33
 70
     0
 62
     7
  6
Continuous
370
    -3
390
F
347
46
348
0
  0
LAYER
  5
6E
330
2
100
AcDbSymbolTableRecord
100
AcDbLayerTableRecord
  2
Sc.1_50
 70
     0
 62
     7
  6
Continuous
370
    -3
390
F
347
46
348
0
  0
LAYER
  5
6F
330
2
100
AcDbSymbolTableRecord
100
AcDbLayerTableRecord
  2
Sc.1_75
 70
     0
 62
     7
  6
Continuous
370
    -3
390
F
347
46
348
0
  0
LAYER
  5
70
330
2
100
AcDbSymbolTableRecord
100
AcDbLayerTableRecord
  2
Sc.1_100
 70
     0
 62
     7
  6
Continuous
370
    -3
390
F
347
46
348
0
  0
LAYER
  5
71
330
2
100
AcDbSymbolTableRecord
100
AcDbLayerTableRecord
  2
Sc.1_200
 70
     0
 62
     7
  6
Continuous
370
    -3
390
F
347
46
348
0
  0
LAYER
  5
72
330
2
100
AcDbSymbolTableRecord
100
AcDbLayerTableRecord
  2
LEGEND
 70
     0
 62
     7
  6
Continuous
370
    -3
390
F
347
46
348
0
  0
LAYER
  5
335
330
2
100
AcDbSymbolTableRecord
100
AcDbLayerTableRecord
  2
Defpoints
 70
     0
 62
     7
  6
Continuous
290
     0
370
    -3
390
F
347
46
348
0
  0
ENDTAB
  0
TABLE
  2
STYLE
  5
3
330
0
100
AcDbSymbolTable
 70
     9
  0
STYLE
  5
11
330
3
100
AcDbSymbolTableRecord
100
AcDbTextStyleTableRecord
  2
Standard
 70
     0
 40
0.0
 41
1.0
 50
0.0
 71
     0
 42
2.5
  3
txt
  4

  0
STYLE
  5
62
330
3
100
AcDbSymbolTableRecord
100
AcDbTextStyleTableRecord
  2
CwStyleShx
 70
     0
 40
1.0
 41
1.0
 50
0.0
 71
     0
 42
2.5
  3

  4

  0
STYLE
  5
63
330
3
100
AcDbSymbolTableRecord
100
AcDbTextStyleTableRecord
  2
CwStyleShx16
 70
     0
 40
1.0
 41
1.0
 50
0.0
 71
     0
 42
2.5
  3

  4

  0
STYLE
  5
64
330
3
100
AcDbSymbolTableRecord
100
AcDbTextStyleTableRecord
  2
MONOTXT
 70
     0
 40
0.0
 41
1.0
 50
0.0
 71
     0
 42
2.5
  3
MONOTXT
  4

  0
STYLE
  5
65
330
3
100
AcDbSymbolTableRecord
100
AcDbTextStyleTableRecord
  2
SYMAP
 70
     0
 40
1.0
 41
1.0
 50
0.0
 71
     0
 42
2.5
  3
SYMAP
  4

  0
STYLE
  5
66
330
3
100
AcDbSymbolTableRecord
100
AcDbTextStyleTableRecord
  2
CwStyleTtf
 70
     0
 40
1.0
 41
1.0
 50
0.0
 71
     0
 42
2.5
  3
arial.ttf
  4

  0
STYLE
  5
332
330
3
100
AcDbSymbolTableRecord
100
AcDbTextStyleTableRecord
  2
tahoma-z-x
 70
     0
 40
0.0
 41
0.8032786885245902
 50
0.0
 71
     0
 42
2.5
  3
tahoma.ttf
  4

1001
ACAD
1000
Tahoma
1071
        0
  0
STYLE
  5
342
330
3
100
AcDbSymbolTableRecord
100
AcDbTextStyleTableRecord
  2
tahoma-
 70
     0
 40
1.0
 41
1.0
 50
0.0
 71
     0
 42
2.5
  3

  4

1001
ACAD
1000
Tahoma
1071
        0
  0
STYLE
  5
357
330
3
100
AcDbSymbolTableRecord
100
AcDbTextStyleTableRecord
  2
tahoma-b
 70
     0
 40
1.0
 41
1.0
 50
0.0
 71
     0
 42
2.5
  3
tahomabd.ttf
  4

1001
ACAD
1000
Tahoma
1071
 33554432
  0
ENDTAB
  0
TABLE
  2
VIEW
  5
6
330
0
100
AcDbSymbolTable
 70
     0
  0
ENDTAB
  0
TABLE
  2
UCS
  5
7
330
0
100
AcDbSymbolTable
 70
     0
  0
ENDTAB
  0
TABLE
  2
APPID
  5
9
330
0
100
AcDbSymbolTable
 70
     3
  0
APPID
  5
12
330
9
100
AcDbSymbolTableRecord
100
AcDbRegAppTableRecord
  2
ACAD
 70
     0
  0
APPID
  5
5E
330
9
100
AcDbSymbolTableRecord
100
AcDbRegAppTableRecord
  2
Cadwork
 70
     0
  0
APPID
  5
21F
330
9
100
AcDbSymbolTableRecord
100
AcDbRegAppTableRecord
  2
PLOTTRANSPARENCY
 70
     0
  0
ENDTAB
  0
TABLE
  2
DIMSTYLE
  5
A
330
0
100
AcDbSymbolTable
 70
     1
100
AcDbDimStyleTable
  0
DIMSTYLE
105
27
102
{ACAD_REACTORS
330
333
102
}
330
A
100
AcDbSymbolTableRecord
100
AcDbDimStyleTableRecord
  2
ISO-25
 70
     0
 41
2.5
 42
0.625
 43
3.75
 44
1.25
 73
     0
 74
     0
 77
     1
 78
     8
140
2.5
141
2.5
143
0.03937007874016
147
0.625
171
     3
172
     1
178
     0
271
     2
272
     2
274
     3
278
    44
283
     0
284
     8
340
11
  0
ENDTAB
  0
TABLE
  2
BLOCK_RECORD
  5
1
330
0
100
AcDbSymbolTable
 70
    70
  0
BLOCK_RECORD
  5
1F
330
1
100
AcDbSymbolTableRecord
100
AcDbBlockTableRecord
  2
*Model_Space
340
22
 70
     0
280
     1
281
     0
  0
BLOCK_RECORD
  5
21A
330
1
100
AcDbSymbolTableRecord
100
AcDbBlockTableRecord
  2
*Paper_Space
340
21B
 70
     0
280
     1
281
     0
  0
BLOCK_RECORD
  5
73
330
1
100
AcDbSymbolTableRecord
100
AcDbBlockTableRecord
  2
CDWK_PTTYP1
340
0
 70
     0
280
     1
281
     1
  0
BLOCK_RECORD
  5
7A
330
1
100
AcDbSymbolTableRecord
100
AcDbBlockTableRecord
  2
CDWK_PTTYP2
340
0
 70
     0
280
     1
281
     1
  0
BLOCK_RECORD
  5
7F
330
1
100
AcDbSymbolTableRecord
100
AcDbBlockTableRecord
  2
CDWK_PTTYP4
340
0
 70
     0
280
     1
281
     1
  0
BLOCK_RECORD
  5
83
330
1
100
AcDbSymbolTableRecord
100
AcDbBlockTableRecord
  2
CDWK_PTTYP5
340
0
 70
     0
280
     1
281
     1
  0
BLOCK_RECORD
  5
8C
330
1
100
AcDbSymbolTableRecord
100
AcDbBlockTableRecord
  2
CDWK_PTTYP6
340
0
 70
     0
280
     1
281
     1
  0
BLOCK_RECORD
  5
94
330
1
100
AcDbSymbolTableRecord
100
AcDbBlockTableRecord
  2
CDWK_PTTYP7
340
0
 70
     0
280
     1
281
     1
  0
BLOCK_RECORD
  5
9D
330
1
100
AcDbSymbolTableRecord
100
AcDbBlockTableRecord
  2
CDWK_PTTYP8
340
0
 70
     0
280
     1
281
     1
  0
BLOCK_RECORD
  5
A1
330
1
100
AcDbSymbolTableRecord
100
AcDbBlockTableRecord
  2
CDWK_PTTYP9
340
0
 70
     0
280
     1
281
     1
  0
BLOCK_RECORD
  5
A6
330
1
100
AcDbSymbolTableRecord
100
AcDbBlockTableRecord
  2
CDWK_PTTYP10
340
0
 70
     0
280
     1
281
     1
  0
BLOCK_RECORD
  5
AA
330
1
100
AcDbSymbolTableRecord
100
AcDbBlockTableRecord
  2
CDWK_PTTYP11
340
0
 70
     0
280
     1
281
     1
  0
BLOCK_RECORD
  5
AF
330
1
100
AcDbSymbolTableRecord
100
AcDbBlockTableRecord
  2
CDWK_PTTYP12
340
0
 70
     0
280
     1
281
     1
  0
BLOCK_RECORD
  5
B4
330
1
100
AcDbSymbolTableRecord
100
AcDbBlockTableRecord
  2
CDWK_PTTYP13
340
0
 70
     0
280
     1
281
     1
  0
BLOCK_RECORD
  5
BA
330
1
100
AcDbSymbolTableRecord
100
AcDbBlockTableRecord
  2
CDWK_PTTYP16
340
0
 70
     0
280
     1
281
     1
  0
BLOCK_RECORD
  5
C1
330
1
100
AcDbSymbolTableRecord
100
AcDbBlockTableRecord
  2
CDWK_PTTYP17
340
0
 70
     0
280
     1
281
     1
  0
BLOCK_RECORD
  5
C6
330
1
100
AcDbSymbolTableRecord
100
AcDbBlockTableRecord
  2
CDWK_PTTYP18
340
0
 70
     0
280
     1
281
     1
  0
BLOCK_RECORD
  5
CB
330
1
100
AcDbSymbolTableRecord
100
AcDbBlockTableRecord
  2
CDWK_PTTYP19
340
0
 70
     0
280
     1
281
     1
  0
BLOCK_RECORD
  5
D1
330
1
100
AcDbSymbolTableRecord
100
AcDbBlockTableRecord
  2
CDWK_PTTYP20
340
0
 70
     0
280
     1
281
     1
  0
BLOCK_RECORD
  5
D6
330
1
100
AcDbSymbolTableRecord
100
AcDbBlockTableRecord
  2
CDWK_PTTYP21
340
0
 70
     0
280
     1
281
     1
  0
BLOCK_RECORD
  5
DB
330
1
100
AcDbSymbolTableRecord
100
AcDbBlockTableRecord
  2
CDWK_PTTYP25
340
0
 70
     0
280
     1
281
     1
  0
BLOCK_RECORD
  5
E2
330
1
100
AcDbSymbolTableRecord
100
AcDbBlockTableRecord
  2
CDWK_PTTYP26
340
0
 70
     0
280
     1
281
     1
  0
BLOCK_RECORD
  5
E9
330
1
100
AcDbSymbolTableRecord
100
AcDbBlockTableRecord
  2
CDWK_PTTYP27
340
0
 70
     0
280
     1
281
     1
  0
BLOCK_RECORD
  5
F1
330
1
100
AcDbSymbolTableRecord
100
AcDbBlockTableRecord
  2
CDWK_PTTYP28
340
0
 70
     0
280
     1
281
     1
  0
BLOCK_RECORD
  5
F8
330
1
100
AcDbSymbolTableRecord
100
AcDbBlockTableRecord
  2
CDWK_PTTYP29
340
0
 70
     0
280
     1
281
     1
  0
BLOCK_RECORD
  5
FE
330
1
100
AcDbSymbolTableRecord
100
AcDbBlockTableRecord
  2
CDWK_PTTYP30
340
0
 70
     0
280
     1
281
     1
  0
BLOCK_RECORD
  5
105
330
1
100
AcDbSymbolTableRecord
100
AcDbBlockTableRecord
  2
CDWK_PTTYP31
340
0
 70
     0
280
     1
281
     1
  0
BLOCK_RECORD
  5
10D
330
1
100
AcDbSymbolTableRecord
100
AcDbBlockTableRecord
  2
CDWK_PTTYP32
340
0
 70
     0
280
     1
281
     1
  0
BLOCK_RECORD
  5
116
330
1
100
AcDbSymbolTableRecord
100
AcDbBlockTableRecord
  2
CDWK_PTTYP33
340
0
 70
     0
280
     1
281
     1
  0
BLOCK_RECORD
  5
11C
330
1
100
AcDbSymbolTableRecord
100
AcDbBlockTableRecord
  2
CDWK_PTTYP34
340
0
 70
     0
280
     1
281
     1
  0
BLOCK_RECORD
  5
122
330
1
100
AcDbSymbolTableRecord
100
AcDbBlockTableRecord
  2
CDWK_PTTYP35
340
0
 70
     0
280
     1
281
     1
  0
BLOCK_RECORD
  5
128
330
1
100
AcDbSymbolTableRecord
100
AcDbBlockTableRecord
  2
CDWK_PTTYP36
340
0
 70
     0
280
     1
281
     1
  0
BLOCK_RECORD
  5
130
330
1
100
AcDbSymbolTableRecord
100
AcDbBlockTableRecord
  2
CDWK_PTTYP37
340
0
 70
     0
280
     1
281
     1
  0
BLOCK_RECORD
  5
135
330
1
100
AcDbSymbolTableRecord
100
AcDbBlockTableRecord
  2
CDWK_PTTYP38
340
0
 70
     0
280
     1
281
     1
  0
BLOCK_RECORD
  5
13B
330
1
100
AcDbSymbolTableRecord
100
AcDbBlockTableRecord
  2
CDWK_PTTYP41
340
0
 70
     0
280
     1
281
     1
  0
BLOCK_RECORD
  5
145
330
1
100
AcDbSymbolTableRecord
100
AcDbBlockTableRecord
  2
CDWK_PTTYP42
340
0
 70
     0
280
     1
281
     1
  0
BLOCK_RECORD
  5
14E
330
1
100
AcDbSymbolTableRecord
100
AcDbBlockTableRecord
  2
CDWK_PTTYP43
340
0
 70
     0
280
     1
281
     1
  0
BLOCK_RECORD
  5
154
330
1
100
AcDbSymbolTableRecord
100
AcDbBlockTableRecord
  2
CDWK_PTTYP44
340
0
 70
     0
280
     1
281
     1
  0
BLOCK_RECORD
  5
15D
330
1
100
AcDbSymbolTableRecord
100
AcDbBlockTableRecord
  2
CDWK_PTTYP45
340
0
 70
     0
280
     1
281
     1
  0
BLOCK_RECORD
  5
162
330
1
100
AcDbSymbolTableRecord
100
AcDbBlockTableRecord
  2
CDWK_PTTYP46
340
0
 70
     0
280
     1
281
     1
  0
BLOCK_RECORD
  5
167
330
1
100
AcDbSymbolTableRecord
100
AcDbBlockTableRecord
  2
CDWK_PTTYP47
340
0
 70
     0
280
     1
281
     1
  0
BLOCK_RECORD
  5
170
330
1
100
AcDbSymbolTableRecord
100
AcDbBlockTableRecord
  2
CDWK_PTTYP48
340
0
 70
     0
280
     1
281
     1
  0
BLOCK_RECORD
  5
175
330
1
100
AcDbSymbolTableRecord
100
AcDbBlockTableRecord
  2
CDWK_PTTYP49
340
0
 70
     0
280
     1
281
     1
  0
BLOCK_RECORD
  5
17C
330
1
100
AcDbSymbolTableRecord
100
AcDbBlockTableRecord
  2
CDWK_PTTYP50
340
0
 70
     0
280
     1
281
     1
  0
BLOCK_RECORD
  5
186
330
1
100
AcDbSymbolTableRecord
100
AcDbBlockTableRecord
  2
CDWK_PTTYP51
340
0
 70
     0
280
     1
281
     1
  0
BLOCK_RECORD
  5
18B
330
1
100
AcDbSymbolTableRecord
100
AcDbBlockTableRecord
  2
CDWK_PTTYP52
340
0
 70
     0
280
     1
281
     1
  0
BLOCK_RECORD
  5
191
330
1
100
AcDbSymbolTableRecord
100
AcDbBlockTableRecord
  2
cw-dimension-symbol1
340
0
 70
     0
280
     1
281
     0
  0
BLOCK_RECORD
  5
198
330
1
100
AcDbSymbolTableRecord
100
AcDbBlockTableRecord
  2
cw-dimension-symbol2
340
0
102
{BLKREFS
331
33C
331
33D
102
}
 70
     0
280
     1
281
     0
  0
BLOCK_RECORD
  5
19D
330
1
100
AcDbSymbolTableRecord
100
AcDbBlockTableRecord
  2
cw-dimension-symbol3
340
0
 70
     0
280
     1
281
     0
  0
BLOCK_RECORD
  5
1A2
330
1
100
AcDbSymbolTableRecord
100
AcDbBlockTableRecord
  2
cw-dimension-symbol5
340
0
 70
     0
280
     1
281
     0
  0
BLOCK_RECORD
  5
1A9
330
1
100
AcDbSymbolTableRecord
100
AcDbBlockTableRecord
  2
cw-dimension-symbol6
340
0
 70
     0
280
     1
281
     0
  0
BLOCK_RECORD
  5
1AF
330
1
100
AcDbSymbolTableRecord
100
AcDbBlockTableRecord
  2
cw-dimension-symbol11
340
0
 70
     0
280
     1
281
     0
  0
BLOCK_RECORD
  5
1B5
330
1
100
AcDbSymbolTableRecord
100
AcDbBlockTableRecord
  2
cw-dimension-symbol13
340
0
 70
     0
280
     1
281
     0
  0
BLOCK_RECORD
  5
1BB
330
1
100
AcDbSymbolTableRecord
100
AcDbBlockTableRecord
  2
cw-dimension-symbol15
340
0
 70
     0
280
     1
281
     0
  0
BLOCK_RECORD
  5
1C2
330
1
100
AcDbSymbolTableRecord
100
AcDbBlockTableRecord
  2
cw-dimension-symbol16
340
0
 70
     0
280
     1
281
     0
  0
BLOCK_RECORD
  5
1C9
330
1
100
AcDbSymbolTableRecord
100
AcDbBlockTableRecord
  2
cw-dimension-symbol17
340
0
 70
     0
280
     1
281
     0
  0
BLOCK_RECORD
  5
1D0
330
1
100
AcDbSymbolTableRecord
100
AcDbBlockTableRecord
  2
cw-dimension-symbol18
340
0
 70
     0
280
     1
281
     0
  0
BLOCK_RECORD
  5
1D7
330
1
100
AcDbSymbolTableRecord
100
AcDbBlockTableRecord
  2
cw-dimension-symbol19
340
0
 70
     0
280
     1
281
     0
  0
BLOCK_RECORD
  5
1DA
330
1
100
AcDbSymbolTableRecord
100
AcDbBlockTableRecord
  2
cw-dimension-symbol20
340
0
 70
     0
280
     1
281
     0
  0
BLOCK_RECORD
  5
1E1
330
1
100
AcDbSymbolTableRecord
100
AcDbBlockTableRecord
  2
cw-dimension-symbol21
340
0
 70
     0
280
     1
281
     0
  0
BLOCK_RECORD
  5
1E8
330
1
100
AcDbSymbolTableRecord
100
AcDbBlockTableRecord
  2
cw-line-extremity0
340
0
 70
     0
280
     1
281
     0
  0
BLOCK_RECORD
  5
1EC
330
1
100
AcDbSymbolTableRecord
100
AcDbBlockTableRecord
  2
cw-line-extremity2
340
0
102
{BLKREFS
331
2FE
331
300
331
302
331
304
331
32F
331
331
102
}
 70
     0
280
     1
281
     0
  0
BLOCK_RECORD
  5
1F1
330
1
100
AcDbSymbolTableRecord
100
AcDbBlockTableRecord
  2
cw-line-extremity3
340
0
 70
     0
280
     1
281
     0
  0
BLOCK_RECORD
  5
1F6
330
1
100
AcDbSymbolTableRecord
100
AcDbBlockTableRecord
  2
cw-line-extremity301
340
0
 70
     0
280
     1
281
     0
  0
BLOCK_RECORD
  5
1F8
330
1
100
AcDbSymbolTableRecord
100
AcDbBlockTableRecord
  2
cw-line-extremity4
340
0
 70
     0
280
     1
281
     0
  0
BLOCK_RECORD
  5
1FA
330
1
100
AcDbSymbolTableRecord
100
AcDbBlockTableRecord
  2
cw-line-extremity5
340
0
 70
     0
280
     1
281
     0
  0
BLOCK_RECORD
  5
1FC
330
1
100
AcDbSymbolTableRecord
100
AcDbBlockTableRecord
  2
cw-line-extremity6
340
0
 70
     0
280
     1
281
     0
  0
BLOCK_RECORD
  5
1FE
330
1
100
AcDbSymbolTableRecord
100
AcDbBlockTableRecord
  2
cw-line-extremity9
340
0
 70
     0
280
     1
281
     0
  0
BLOCK_RECORD
  5
200
330
1
100
AcDbSymbolTableRecord
100
AcDbBlockTableRecord
  2
cw-line-extremity10
340
0
 70
     0
280
     1
281
     0
  0
BLOCK_RECORD
  5
202
330
1
100
AcDbSymbolTableRecord
100
AcDbBlockTableRecord
  2
cw-line-extremity1
340
0
 70
     0
280
     1
281
     0
  0
BLOCK_RECORD
  5
1B
330
1
100
AcDbSymbolTableRecord
100
AcDbBlockTableRecord
  2
*Paper_Space69
340
1E
 70
     0
280
     1
281
     0
  0
BLOCK_RECORD
  5
336
330
1
100
AcDbSymbolTableRecord
100
AcDbBlockTableRecord
  2
*D70
340
0
 70
     0
280
     1
281
     0
  0
ENDTAB
  0
ENDSEC
  0
SECTION
  2
BLOCKS
  0
BLOCK
  5
20
330
1F
100
AcDbEntity
  8
0
100
AcDbBlockBegin
  2
*Model_Space
 70
     0
 10
0.0
 20
0.0
 30
0.0
  3
*Model_Space
  1

  0
ENDBLK
  5
21
330
1F
100
AcDbEntity
  8
0
100
AcDbBlockEnd
  0
BLOCK
  5
21C
330
21A
100
AcDbEntity
 67
     1
  8
0
100
AcDbBlockBegin
  2
*Paper_Space
 70
     0
 10
0.0
 20
0.0
 30
0.0
  3
*Paper_Space
  1

  0
ENDBLK
  5
21D
330
21A
100
AcDbEntity
 67
     1
  8
0
100
AcDbBlockEnd
  0
BLOCK
  5
78
330
73
100
AcDbEntity
  8
0
100
AcDbBlockBegin
  2
CDWK_PTTYP1
 70
     0
 10
0.0
 20
0.0
 30
0.0
  3
CDWK_PTTYP1
  1

  0
LINE
  5
74
330
73
100
AcDbEntity
  8
0
  6
Continuous
 62
     0
370
    -2
390
5F
100
AcDbLine
 10
-0.5
 20
0.5
 30
0.0
 11
0.5
 21
0.5
 31
0.0
  0
LINE
  5
75
330
73
100
AcDbEntity
  8
0
  6
Continuous
 62
     0
370
    -2
390
5F
100
AcDbLine
 10
0.5
 20
0.5
 30
0.0
 11
0.5
 21
-0.5
 31
0.0
  0
LINE
  5
76
330
73
100
AcDbEntity
  8
0
  6
Continuous
 62
     0
370
    -2
390
5F
100
AcDbLine
 10
0.5
 20
-0.5
 30
0.0
 11
-0.5
 21
-0.5
 31
0.0
  0
LINE
  5
77
330
73
100
AcDbEntity
  8
0
  6
Continuous
 62
     0
370
    -2
390
5F
100
AcDbLine
 10
-0.5
 20
-0.5
 30
0.0
 11
-0.5
 21
0.5
 31
0.0
  0
ENDBLK
  5
79
330
73
100
AcDbEntity
  8
0
100
AcDbBlockEnd
  0
BLOCK
  5
7D
330
7A
100
AcDbEntity
  8
0
100
AcDbBlockBegin
  2
CDWK_PTTYP2
 70
     0
 10
0.0
 20
0.0
 30
0.0
  3
CDWK_PTTYP2
  1

  0
LINE
  5
7B
330
7A
100
AcDbEntity
  8
0
  6
Continuous
 62
     0
370
    -2
390
5F
100
AcDbLine
 10
0.0
 20
0.5
 30
0.0
 11
0.0
 21
-0.5
 31
0.0
  0
LINE
  5
7C
330
7A
100
AcDbEntity
  8
0
  6
Continuous
 62
     0
370
    -2
390
5F
100
AcDbLine
 10
0.5
 20
0.0
 30
0.0
 11
-0.5
 21
0.0
 31
0.0
  0
ENDBLK
  5
7E
330
7A
100
AcDbEntity
  8
0
100
AcDbBlockEnd
  0
BLOCK
  5
81
330
7F
100
AcDbEntity
  8
0
100
AcDbBlockBegin
  2
CDWK_PTTYP4
 70
     0
 10
0.0
 20
0.0
 30
0.0
  3
CDWK_PTTYP4
  1

  0
HATCH
  5
80
330
7F
100
AcDbEntity
  8
0
  6
Continuous
 62
     0
370
    -2
390
5F
100
AcDbHatch
 10
0.0
 20
0.0
 30
0.0
210
0.0
220
0.0
230
1.0
  2
SOLID
 70
     1
 71
     0
 91
        1
 92
        1
 93
        1
 72
     2
 10
0.0
 20
0.0
 40
0.5
 50
0.0
 51
360.0
 73
     1
 97
        0
 75
     0
 76
     1
 98
        0
  0
ENDBLK
  5
82
330
7F
100
AcDbEntity
  8
0
100
AcDbBlockEnd
  0
BLOCK
  5
8A
330
83
100
AcDbEntity
  8
0
100
AcDbBlockBegin
  2
CDWK_PTTYP5
 70
     0
 10
0.0
 20
0.0
 30
0.0
  3
CDWK_PTTYP5
  1

  0
LINE
  5
84
330
83
100
AcDbEntity
  8
0
  6
Continuous
 62
     0
370
    -2
390
5F
100
AcDbLine
 10
-0.5
 20
0.5
 30
0.0
 11
0.5
 21
0.5
 31
0.0
  0
LINE
  5
85
330
83
100
AcDbEntity
  8
0
  6
Continuous
 62
     0
370
    -2
390
5F
100
AcDbLine
 10
0.5
 20
0.5
 30
0.0
 11
0.5
 21
-0.5
 31
0.0
  0
LINE
  5
86
330
83
100
AcDbEntity
  8
0
  6
Continuous
 62
     0
370
    -2
390
5F
100
AcDbLine
 10
0.5
 20
-0.5
 30
0.0
 11
-0.5
 21
-0.5
 31
0.0
  0
LINE
  5
87
330
83
100
AcDbEntity
  8
0
  6
Continuous
 62
     0
370
    -2
390
5F
100
AcDbLine
 10
-0.5
 20
-0.5
 30
0.0
 11
-0.5
 21
0.5
 31
0.0
  0
HATCH
  5
88
330
83
100
AcDbEntity
  8
0
  6
Continuous
 62
     0
370
    -2
390
5F
100
AcDbHatch
 10
0.0
 20
0.0
 30
0.0
210
0.0
220
0.0
230
1.0
  2
SOLID
 70
     1
 71
     0
 91
        1
 92
        3
 72
     0
 73
     1
 93
        4
 10
-0.5
 20
0.0
 10
0.0
 20
0.0
 10
0.0
 20
-0.5
 10
-0.5
 20
-0.5
 97
        0
 75
     0
 76
     1
 98
        0
  0
HATCH
  5
89
330
83
100
AcDbEntity
  8
0
  6
Continuous
 62
     0
370
    -2
390
5F
100
AcDbHatch
 10
0.0
 20
0.0
 30
0.0
210
0.0
220
0.0
230
1.0
  2
SOLID
 70
     1
 71
     0
 91
        1
 92
        3
 72
     0
 73
     1
 93
        4
 10
0.0
 20
0.0
 10
0.5
 20
0.0
 10
0.5
 20
0.5
 10
0.0
 20
0.5
 97
        0
 75
     0
 76
     1
 98
        0
  0
ENDBLK
  5
8B
330
83
100
AcDbEntity
  8
0
100
AcDbBlockEnd
  0
BLOCK
  5
92
330
8C
100
AcDbEntity
  8
0
100
AcDbBlockBegin
  2
CDWK_PTTYP6
 70
     0
 10
0.0
 20
0.0
 30
0.0
  3
CDWK_PTTYP6
  1

  0
LINE
  5
8D
330
8C
100
AcDbEntity
  8
0
  6
Continuous
 62
     0
370
    -2
390
5F
100
AcDbLine
 10
-0.5
 20
0.5
 30
0.0
 11
0.5
 21
0.5
 31
0.0
  0
LINE
  5
8E
330
8C
100
AcDbEntity
  8
0
  6
Continuous
 62
     0
370
    -2
390
5F
100
AcDbLine
 10
0.5
 20
0.5
 30
0.0
 11
0.5
 21
-0.5
 31
0.0
  0
LINE
  5
8F
330
8C
100
AcDbEntity
  8
0
  6
Continuous
 62
     0
370
    -2
390
5F
100
AcDbLine
 10
0.5
 20
-0.5
 30
0.0
 11
-0.5
 21
-0.5
 31
0.0
  0
LINE
  5
90
330
8C
100
AcDbEntity
  8
0
  6
Continuous
 62
     0
370
    -2
390
5F
100
AcDbLine
 10
-0.5
 20
-0.5
 30
0.0
 11
-0.5
 21
0.5
 31
0.0
  0
HATCH
  5
91
330
8C
100
AcDbEntity
  8
0
  6
Continuous
 62
     0
370
    -2
390
5F
100
AcDbHatch
 10
0.0
 20
0.0
 30
0.0
210
0.0
220
0.0
230
1.0
  2
SOLID
 70
     1
 71
     0
 91
        1
 92
        3
 72
     0
 73
     1
 93
        3
 10
-0.5
 20
-0.5
 10
-0.5
 20
0.5
 10
0.5
 20
0.5
 97
        0
 75
     0
 76
     1
 98
        0
  0
ENDBLK
  5
93
330
8C
100
AcDbEntity
  8
0
100
AcDbBlockEnd
  0
BLOCK
  5
9B
330
94
100
AcDbEntity
  8
0
100
AcDbBlockBegin
  2
CDWK_PTTYP7
 70
     0
 10
0.0
 20
0.0
 30
0.0
  3
CDWK_PTTYP7
  1

  0
LINE
  5
95
330
94
100
AcDbEntity
  8
0
  6
Continuous
 62
     0
370
    -2
390
5F
100
AcDbLine
 10
-0.5
 20
0.5
 30
0.0
 11
0.5
 21
0.5
 31
0.0
  0
LINE
  5
96
330
94
100
AcDbEntity
  8
0
  6
Continuous
 62
     0
370
    -2
390
5F
100
AcDbLine
 10
0.5
 20
0.5
 30
0.0
 11
0.5
 21
-0.5
 31
0.0
  0
LINE
  5
97
330
94
100
AcDbEntity
  8
0
  6
Continuous
 62
     0
370
    -2
390
5F
100
AcDbLine
 10
0.5
 20
-0.5
 30
0.0
 11
-0.5
 21
-0.5
 31
0.0
  0
LINE
  5
98
330
94
100
AcDbEntity
  8
0
  6
Continuous
 62
     0
370
    -2
390
5F
100
AcDbLine
 10
-0.5
 20
-0.5
 30
0.0
 11
-0.5
 21
0.5
 31
0.0
  0
LINE
  5
99
330
94
100
AcDbEntity
  8
0
  6
Continuous
 62
     0
370
    -2
390
5F
100
AcDbLine
 10
0.0
 20
0.5
 30
0.0
 11
0.0
 21
-0.5
 31
0.0
  0
LINE
  5
9A
330
94
100
AcDbEntity
  8
0
  6
Continuous
 62
     0
370
    -2
390
5F
100
AcDbLine
 10
0.5
 20
0.0
 30
0.0
 11
-0.5
 21
0.0
 31
0.0
  0
ENDBLK
  5
9C
330
94
100
AcDbEntity
  8
0
100
AcDbBlockEnd
  0
BLOCK
  5
9F
330
9D
100
AcDbEntity
  8
0
100
AcDbBlockBegin
  2
CDWK_PTTYP8
 70
     0
 10
0.0
 20
0.0
 30
0.0
  3
CDWK_PTTYP8
  1

  0
HATCH
  5
9E
330
9D
100
AcDbEntity
  8
0
  6
Continuous
 62
     0
370
    -2
390
5F
100
AcDbHatch
 10
0.0
 20
0.0
 30
0.0
210
0.0
220
0.0
230
1.0
  2
SOLID
 70
     1
 71
     0
 91
        1
 92
        3
 72
     0
 73
     1
 93
        4
 10
0.5
 20
0.5
 10
0.5
 20
-0.5
 10
-0.5
 20
-0.5
 10
-0.5
 20
0.5
 97
        0
 75
     0
 76
     1
 98
        0
  0
ENDBLK
  5
A0
330
9D
100
AcDbEntity
  8
0
100
AcDbBlockEnd
  0
BLOCK
  5
A4
330
A1
100
AcDbEntity
  8
0
100
AcDbBlockBegin
  2
CDWK_PTTYP9
 70
     0
 10
0.0
 20
0.0
 30
0.0
  3
CDWK_PTTYP9
  1

  0
CIRCLE
  5
A2
330
A1
100
AcDbEntity
  8
0
  6
Continuous
 62
     0
370
    -2
390
5F
100
AcDbCircle
 10
0.0
 20
0.0
 30
0.0
 40
0.1666666666666667
  0
CIRCLE
  5
A3
330
A1
100
AcDbEntity
  8
0
  6
Continuous
 62
     0
370
    -2
390
5F
100
AcDbCircle
 10
0.0
 20
0.0
 30
0.0
 40
0.5
  0
ENDBLK
  5
A5
330
A1
100
AcDbEntity
  8
0
100
AcDbBlockEnd
  0
BLOCK
  5
A8
330
A6
100
AcDbEntity
  8
0
100
AcDbBlockBegin
  2
CDWK_PTTYP10
 70
     0
 10
0.0
 20
0.0
 30
0.0
  3
CDWK_PTTYP10
  1

  0
CIRCLE
  5
A7
330
A6
100
AcDbEntity
  8
0
  6
Continuous
 62
     0
370
    -2
390
5F
100
AcDbCircle
 10
0.0
 20
0.0
 30
0.0
 40
0.5
  0
ENDBLK
  5
A9
330
A6
100
AcDbEntity
  8
0
100
AcDbBlockEnd
  0
BLOCK
  5
AD
330
AA
100
AcDbEntity
  8
0
100
AcDbBlockBegin
  2
CDWK_PTTYP11
 70
     0
 10
0.0
 20
0.0
 30
0.0
  3
CDWK_PTTYP11
  1

  0
CIRCLE
  5
AB
330
AA
100
AcDbEntity
  8
0
  6
Continuous
 62
     0
370
    -2
390
5F
100
AcDbCircle
 10
0.0
 20
0.0
 30
0.0
 40
0.25
  0
CIRCLE
  5
AC
330
AA
100
AcDbEntity
  8
0
  6
Continuous
 62
     0
370
    -2
390
5F
100
AcDbCircle
 10
0.0
 20
0.0
 30
0.0
 40
0.5
  0
ENDBLK
  5
AE
330
AA
100
AcDbEntity
  8
0
100
AcDbBlockEnd
  0
BLOCK
  5
B2
330
AF
100
AcDbEntity
  8
0
100
AcDbBlockBegin
  2
CDWK_PTTYP12
 70
     0
 10
0.0
 20
0.0
 30
0.0
  3
CDWK_PTTYP12
  1

  0
CIRCLE
  5
B0
330
AF
100
AcDbEntity
  8
0
  6
Continuous
 62
     0
370
    -2
390
5F
100
AcDbCircle
 10
0.25
 20
0.0
 30
0.0
 40
0.25
  0
CIRCLE
  5
B1
330
AF
100
AcDbEntity
  8
0
  6
Continuous
 62
     0
370
    -2
390
5F
100
AcDbCircle
 10
0.0
 20
0.0
 30
0.0
 40
0.5
  0
ENDBLK
  5
B3
330
AF
100
AcDbEntity
  8
0
100
AcDbBlockEnd
  0
BLOCK
  5
B8
330
B4
100
AcDbEntity
  8
0
100
AcDbBlockBegin
  2
CDWK_PTTYP13
 70
     0
 10
0.0
 20
0.0
 30
0.0
  3
CDWK_PTTYP13
  1

  0
CIRCLE
  5
B5
330
B4
100
AcDbEntity
  8
0
  6
Continuous
 62
     0
370
    -2
390
5F
100
AcDbCircle
 10
-0.25
 20
0.0
 30
0.0
 40
0.25
  0
CIRCLE
  5
B6
330
B4
100
AcDbEntity
  8
0
  6
Continuous
 62
     0
370
    -2
390
5F
100
AcDbCircle
 10
0.25
 20
0.0
 30
0.0
 40
0.25
  0
CIRCLE
  5
B7
330
B4
100
AcDbEntity
  8
0
  6
Continuous
 62
     0
370
    -2
390
5F
100
AcDbCircle
 10
0.0
 20
0.0
 30
0.0
 40
0.5
  0
ENDBLK
  5
B9
330
B4
100
AcDbEntity
  8
0
100
AcDbBlockEnd
  0
BLOCK
  5
BF
330
BA
100
AcDbEntity
  8
0
100
AcDbBlockBegin
  2
CDWK_PTTYP16
 70
     0
 10
0.0
 20
0.0
 30
0.0
  3
CDWK_PTTYP16
  1

  0
LINE
  5
BB
330
BA
100
AcDbEntity
  8
0
  6
Continuous
 62
     0
370
    -2
390
5F
100
AcDbLine
 10
-0.5
 20
-0.289
 30
0.0
 11
0.5
 21
-0.289
 31
0.0
  0
LINE
  5
BC
330
BA
100
AcDbEntity
  8
0
  6
Continuous
 62
     0
370
    -2
390
5F
100
AcDbLine
 10
0.5
 20
-0.289
 30
0.0
 11
0.0
 21
0.577
 31
0.0
  0
LINE
  5
BD
330
BA
100
AcDbEntity
  8
0
  6
Continuous
 62
     0
370
    -2
390
5F
100
AcDbLine
 10
0.0
 20
0.577
 30
0.0
 11
-0.5
 21
-0.289
 31
0.0
  0
CIRCLE
  5
BE
330
BA
100
AcDbEntity
  8
0
  6
Continuous
 62
     0
370
    -2
390
5F
100
AcDbCircle
 10
0.0
 20
0.0
 30
0.0
 40
0.289
  0
ENDBLK
  5
C0
330
BA
100
AcDbEntity
  8
0
100
AcDbBlockEnd
  0
BLOCK
  5
C4
330
C1
100
AcDbEntity
  8
0
100
AcDbBlockBegin
  2
CDWK_PTTYP17
 70
     0
 10
0.0
 20
0.0
 30
0.0
  3
CDWK_PTTYP17
  1

  0
CIRCLE
  5
C2
330
C1
100
AcDbEntity
  8
0
  6
Continuous
 62
     0
370
    -2
390
5F
100
AcDbCircle
 10
0.0
 20
0.0
 30
0.0
 40
0.5
  0
HATCH
  5
C3
330
C1
100
AcDbEntity
  8
0
  6
Continuous
 62
     0
370
    -2
390
5F
100
AcDbHatch
 10
0.0
 20
0.0
 30
0.0
210
0.0
220
0.0
230
1.0
  2
SOLID
 70
     1
 71
     0
 91
        1
 92
        1
 93
        1
 72
     2
 10
0.0
 20
0.0
 40
0.25
 50
0.0
 51
360.0
 73
     1
 97
        0
 75
     0
 76
     1
 98
        0
  0
ENDBLK
  5
C5
330
C1
100
AcDbEntity
  8
0
100
AcDbBlockEnd
  0
BLOCK
  5
C9
330
C6
100
AcDbEntity
  8
0
100
AcDbBlockBegin
  2
CDWK_PTTYP18
 70
     0
 10
0.0
 20
0.0
 30
0.0
  3
CDWK_PTTYP18
  1

  0
CIRCLE
  5
C7
330
C6
100
AcDbEntity
  8
0
  6
Continuous
 62
     0
370
    -2
390
5F
100
AcDbCircle
 10
0.0
 20
0.0
 30
0.0
 40
0.5
  0
CIRCLE
  5
C8
330
C6
100
AcDbEntity
  8
0
  6
Continuous
 62
     0
370
    -2
390
5F
100
AcDbCircle
 10
0.0
 20
0.0
 30
0.0
 40
0.208
  0
ENDBLK
  5
CA
330
C6
100
AcDbEntity
  8
0
100
AcDbBlockEnd
  0
BLOCK
  5
CF
330
CB
100
AcDbEntity
  8
0
100
AcDbBlockBegin
  2
CDWK_PTTYP19
 70
     0
 10
0.0
 20
0.0
 30
0.0
  3
CDWK_PTTYP19
  1

  0
CIRCLE
  5
CC
330
CB
100
AcDbEntity
  8
0
  6
Continuous
 62
     0
370
    -2
390
5F
100
AcDbCircle
 10
0.0
 20
0.0
 30
0.0
 40
0.25
  0
CIRCLE
  5
CD
330
CB
100
AcDbEntity
  8
0
  6
Continuous
 62
     0
370
    -2
390
5F
100
AcDbCircle
 10
0.0
 20
0.0
 30
0.0
 40
0.35
  0
LINE
  5
CE
330
CB
100
AcDbEntity
  8
0
  6
Continuous
 62
     0
370
    -2
390
5F
100
AcDbLine
 10
-0.25
 20
0.0
 30
0.0
 11
0.25
 21
0.0
 31
0.0
  0
ENDBLK
  5
D0
330
CB
100
AcDbEntity
  8
0
100
AcDbBlockEnd
  0
BLOCK
  5
D4
330
D1
100
AcDbEntity
  8
0
100
AcDbBlockBegin
  2
CDWK_PTTYP20
 70
     0
 10
0.0
 20
0.0
 30
0.0
  3
CDWK_PTTYP20
  1

  0
CIRCLE
  5
D2
330
D1
100
AcDbEntity
  8
0
  6
Continuous
 62
     0
370
    -2
390
5F
100
AcDbCircle
 10
0.0
 20
0.0
 30
0.0
 40
0.3333333333333333
  0
CIRCLE
  5
D3
330
D1
100
AcDbEntity
  8
0
  6
Continuous
 62
     0
370
    -2
390
5F
100
AcDbCircle
 10
0.0
 20
0.0
 30
0.0
 40
0.5
  0
ENDBLK
  5
D5
330
D1
100
AcDbEntity
  8
0
100
AcDbBlockEnd
  0
BLOCK
  5
D9
330
D6
100
AcDbEntity
  8
0
100
AcDbBlockBegin
  2
CDWK_PTTYP21
 70
     0
 10
0.0
 20
0.0
 30
0.0
  3
CDWK_PTTYP21
  1

  0
CIRCLE
  5
D7
330
D6
100
AcDbEntity
  8
0
  6
Continuous
 62
     0
370
    -2
390
5F
100
AcDbCircle
 10
0.0
 20
0.0
 30
0.0
 40
0.5
  0
LINE
  5
D8
330
D6
100
AcDbEntity
  8
0
  6
Continuous
 62
     0
370
    -2
390
5F
100
AcDbLine
 10
-0.5
 20
0.0
 30
0.0
 11
0.5
 21
0.0
 31
0.0
  0
ENDBLK
  5
DA
330
D6
100
AcDbEntity
  8
0
100
AcDbBlockEnd
  0
BLOCK
  5
E0
330
DB
100
AcDbEntity
  8
0
100
AcDbBlockBegin
  2
CDWK_PTTYP25
 70
     0
 10
0.0
 20
0.0
 30
0.0
  3
CDWK_PTTYP25
  1

  0
LINE
  5
DC
330
DB
100
AcDbEntity
  8
0
  6
Continuous
 62
     0
370
    -2
390
5F
100
AcDbLine
 10
0.0
 20
0.5
 30
0.0
 11
-0.4330127018922193
 21
-0.25
 31
0.0
  0
LINE
  5
DD
330
DB
100
AcDbEntity
  8
0
  6
Continuous
 62
     0
370
    -2
390
5F
100
AcDbLine
 10
-0.4330127018922193
 20
-0.25
 30
0.0
 11
0.4330127018922193
 21
-0.25
 31
0.0
  0
LINE
  5
DE
330
DB
100
AcDbEntity
  8
0
  6
Continuous
 62
     0
370
    -2
390
5F
100
AcDbLine
 10
0.4330127018922193
 20
-0.25
 30
0.0
 11
0.0
 21
0.5
 31
0.0
  0
CIRCLE
  5
DF
330
DB
100
AcDbEntity
  8
0
  6
Continuous
 62
     0
370
    -2
390
5F
100
AcDbCircle
 10
0.0
 20
0.0
 30
0.0
 40
0.5
  0
ENDBLK
  5
E1
330
DB
100
AcDbEntity
  8
0
100
AcDbBlockEnd
  0
BLOCK
  5
E7
330
E2
100
AcDbEntity
  8
0
100
AcDbBlockBegin
  2
CDWK_PTTYP26
 70
     0
 10
0.0
 20
0.0
 30
0.0
  3
CDWK_PTTYP26
  1

  0
LINE
  5
E3
330
E2
100
AcDbEntity
  8
0
  6
Continuous
 62
     0
370
    -2
390
5F
100
AcDbLine
 10
-0.5
 20
-0.289
 30
0.0
 11
0.5
 21
-0.289
 31
0.0
  0
LINE
  5
E4
330
E2
100
AcDbEntity
  8
0
  6
Continuous
 62
     0
370
    -2
390
5F
100
AcDbLine
 10
0.5
 20
-0.289
 30
0.0
 11
0.0
 21
0.577
 31
0.0
  0
LINE
  5
E5
330
E2
100
AcDbEntity
  8
0
  6
Continuous
 62
     0
370
    -2
390
5F
100
AcDbLine
 10
0.0
 20
0.577
 30
0.0
 11
-0.5
 21
-0.289
 31
0.0
  0
CIRCLE
  5
E6
330
E2
100
AcDbEntity
  8
0
  6
Continuous
 62
     0
370
    -2
390
5F
100
AcDbCircle
 10
0.0
 20
0.0
 30
0.0
 40
0.125
  0
ENDBLK
  5
E8
330
E2
100
AcDbEntity
  8
0
100
AcDbBlockEnd
  0
BLOCK
  5
EF
330
E9
100
AcDbEntity
  8
0
100
AcDbBlockBegin
  2
CDWK_PTTYP27
 70
     0
 10
0.0
 20
0.0
 30
0.0
  3
CDWK_PTTYP27
  1

  0
LINE
  5
EA
330
E9
100
AcDbEntity
  8
0
  6
Continuous
 62
     0
370
    -2
390
5F
100
AcDbLine
 10
0.0
 20
0.5
 30
0.0
 11
-0.4330127018922193
 21
-0.25
 31
0.0
  0
LINE
  5
EB
330
E9
100
AcDbEntity
  8
0
  6
Continuous
 62
     0
370
    -2
390
5F
100
AcDbLine
 10
-0.4330127018922193
 20
-0.25
 30
0.0
 11
0.4330127018922193
 21
-0.25
 31
0.0
  0
LINE
  5
EC
330
E9
100
AcDbEntity
  8
0
  6
Continuous
 62
     0
370
    -2
390
5F
100
AcDbLine
 10
0.4330127018922193
 20
-0.25
 30
0.0
 11
0.0
 21
0.5
 31
0.0
  0
CIRCLE
  5
ED
330
E9
100
AcDbEntity
  8
0
  6
Continuous
 62
     0
370
    -2
390
5F
100
AcDbCircle
 10
0.0
 20
0.0
 30
0.0
 40
0.125
  0
CIRCLE
  5
EE
330
E9
100
AcDbEntity
  8
0
  6
Continuous
 62
     0
370
    -2
390
5F
100
AcDbCircle
 10
0.0
 20
0.0
 30
0.0
 40
0.5
  0
ENDBLK
  5
F0
330
E9
100
AcDbEntity
  8
0
100
AcDbBlockEnd
  0
BLOCK
  5
F6
330
F1
100
AcDbEntity
  8
0
100
AcDbBlockBegin
  2
CDWK_PTTYP28
 70
     0
 10
0.0
 20
0.0
 30
0.0
  3
CDWK_PTTYP28
  1

  0
LINE
  5
F2
330
F1
100
AcDbEntity
  8
0
  6
Continuous
 62
     0
370
    -2
390
5F
100
AcDbLine
 10
-0.5
 20
0.5
 30
0.0
 11
0.5
 21
0.5
 31
0.0
  0
LINE
  5
F3
330
F1
100
AcDbEntity
  8
0
  6
Continuous
 62
     0
370
    -2
390
5F
100
AcDbLine
 10
0.5
 20
0.5
 30
0.0
 11
-0.5
 21
-0.5
 31
0.0
  0
LINE
  5
F4
330
F1
100
AcDbEntity
  8
0
  6
Continuous
 62
     0
370
    -2
390
5F
100
AcDbLine
 10
0.5
 20
-0.5
 30
0.0
 11
-0.5
 21
-0.5
 31
0.0
  0
LINE
  5
F5
330
F1
100
AcDbEntity
  8
0
  6
Continuous
 62
     0
370
    -2
390
5F
100
AcDbLine
 10
-0.5
 20
0.5
 30
0.0
 11
0.5
 21
-0.5
 31
0.0
  0
ENDBLK
  5
F7
330
F1
100
AcDbEntity
  8
0
100
AcDbBlockEnd
  0
BLOCK
  5
FC
330
F8
100
AcDbEntity
  8
0
100
AcDbBlockBegin
  2
CDWK_PTTYP29
 70
     0
 10
0.0
 20
0.0
 30
0.0
  3
CDWK_PTTYP29
  1

  0
CIRCLE
  5
F9
330
F8
100
AcDbEntity
  8
0
  6
Continuous
 62
     0
370
    -2
390
5F
100
AcDbCircle
 10
0.0
 20
0.0
 30
0.0
 40
0.2
  0
CIRCLE
  5
FA
330
F8
100
AcDbEntity
  8
0
  6
Continuous
 62
     0
370
    -2
390
5F
100
AcDbCircle
 10
0.0
 20
0.0
 30
0.0
 40
0.35
  0
CIRCLE
  5
FB
330
F8
100
AcDbEntity
  8
0
  6
Continuous
 62
     0
370
    -2
390
5F
100
AcDbCircle
 10
0.0
 20
0.0
 30
0.0
 40
0.5
  0
ENDBLK
  5
FD
330
F8
100
AcDbEntity
  8
0
100
AcDbBlockEnd
  0
BLOCK
  5
103
330
FE
100
AcDbEntity
  8
0
100
AcDbBlockBegin
  2
CDWK_PTTYP30
 70
     0
 10
0.0
 20
0.0
 30
0.0
  3
CDWK_PTTYP30
  1

  0
LINE
  5
FF
330
FE
100
AcDbEntity
  8
0
  6
Continuous
 62
     0
370
    -2
390
5F
100
AcDbLine
 10
-0.5
 20
0.5
 30
0.0
 11
-0.1
 21
0.1
 31
0.0
  0
LINE
  5
100
330
FE
100
AcDbEntity
  8
0
  6
Continuous
 62
     0
370
    -2
390
5F
100
AcDbLine
 10
0.5
 20
0.5
 30
0.0
 11
0.1
 21
0.1
 31
0.0
  0
LINE
  5
101
330
FE
100
AcDbEntity
  8
0
  6
Continuous
 62
     0
370
    -2
390
5F
100
AcDbLine
 10
0.5
 20
-0.5
 30
0.0
 11
0.1
 21
-0.1
 31
0.0
  0
LINE
  5
102
330
FE
100
AcDbEntity
  8
0
  6
Continuous
 62
     0
370
    -2
390
5F
100
AcDbLine
 10
-0.5
 20
-0.5
 30
0.0
 11
-0.1
 21
-0.1
 31
0.0
  0
ENDBLK
  5
104
330
FE
100
AcDbEntity
  8
0
100
AcDbBlockEnd
  0
BLOCK
  5
10B
330
105
100
AcDbEntity
  8
0
100
AcDbBlockBegin
  2
CDWK_PTTYP31
 70
     0
 10
0.0
 20
0.0
 30
0.0
  3
CDWK_PTTYP31
  1

  0
LINE
  5
106
330
105
100
AcDbEntity
  8
0
  6
Continuous
 62
     0
370
    -2
390
5F
100
AcDbLine
 10
-0.5
 20
0.0
 30
0.0
 11
-0.1
 21
0.0
 31
0.0
  0
LINE
  5
107
330
105
100
AcDbEntity
  8
0
  6
Continuous
 62
     0
370
    -2
390
5F
100
AcDbLine
 10
0.1
 20
0.0
 30
0.0
 11
0.5
 21
0.0
 31
0.0
  0
LINE
  5
108
330
105
100
AcDbEntity
  8
0
  6
Continuous
 62
     0
370
    -2
390
5F
100
AcDbLine
 10
0.0
 20
0.5
 30
0.0
 11
0.0
 21
0.1
 31
0.0
  0
LINE
  5
109
330
105
100
AcDbEntity
  8
0
  6
Continuous
 62
     0
370
    -2
390
5F
100
AcDbLine
 10
0.0
 20
-0.1
 30
0.0
 11
0.0
 21
-0.5
 31
0.0
  0
CIRCLE
  5
10A
330
105
100
AcDbEntity
  8
0
  6
Continuous
 62
     0
370
    -2
390
5F
100
AcDbCircle
 10
0.0
 20
0.0
 30
0.0
 40
0.1
  0
ENDBLK
  5
10C
330
105
100
AcDbEntity
  8
0
100
AcDbBlockEnd
  0
BLOCK
  5
114
330
10D
100
AcDbEntity
  8
0
100
AcDbBlockBegin
  2
CDWK_PTTYP32
 70
     0
 10
0.0
 20
0.0
 30
0.0
  3
CDWK_PTTYP32
  1

  0
CIRCLE
  5
10E
330
10D
100
AcDbEntity
  8
0
  6
Continuous
 62
     0
370
    -2
390
5F
100
AcDbCircle
 10
0.0
 20
0.0
 30
0.0
 40
0.2
  0
CIRCLE
  5
10F
330
10D
100
AcDbEntity
  8
0
  6
Continuous
 62
     0
370
    -2
390
5F
100
AcDbCircle
 10
0.0
 20
0.0
 30
0.0
 40
0.5
  0
LINE
  5
110
330
10D
100
AcDbEntity
  8
0
  6
Continuous
 62
     0
370
    -2
390
5F
100
AcDbLine
 10
0.1414213562373095
 20
0.1414213562373095
 30
0.0
 11
0.3535533905932738
 21
0.3535533905932738
 31
0.0
  0
LINE
  5
111
330
10D
100
AcDbEntity
  8
0
  6
Continuous
 62
     0
370
    -2
390
5F
100
AcDbLine
 10
-0.1414213562373095
 20
0.1414213562373095
 30
0.0
 11
-0.3535533905932738
 21
0.3535533905932738
 31
0.0
  0
LINE
  5
112
330
10D
100
AcDbEntity
  8
0
  6
Continuous
 62
     0
370
    -2
390
5F
100
AcDbLine
 10
0.1414213562373095
 20
-0.1414213562373095
 30
0.0
 11
0.3535533905932738
 21
-0.3535533905932738
 31
0.0
  0
LINE
  5
113
330
10D
100
AcDbEntity
  8
0
  6
Continuous
 62
     0
370
    -2
390
5F
100
AcDbLine
 10
-0.1414213562373095
 20
-0.1414213562373095
 30
0.0
 11
-0.3535533905932738
 21
-0.3535533905932738
 31
0.0
  0
ENDBLK
  5
115
330
10D
100
AcDbEntity
  8
0
100
AcDbBlockEnd
  0
BLOCK
  5
11A
330
116
100
AcDbEntity
  8
0
100
AcDbBlockBegin
  2
CDWK_PTTYP33
 70
     0
 10
0.0
 20
0.0
 30
0.0
  3
CDWK_PTTYP33
  1

  0
LINE
  5
117
330
116
100
AcDbEntity
  8
0
  6
Continuous
 62
     0
370
    -2
390
5F
100
AcDbLine
 10
0.0
 20
-0.5
 30
0.0
 11
0.0
 21
0.5
 31
0.0
  0
LINE
  5
118
330
116
100
AcDbEntity
  8
0
  6
Continuous
 62
     0
370
    -2
390
5F
100
AcDbLine
 10
0.5
 20
0.0
 30
0.0
 11
-0.5
 21
0.0
 31
0.0
  0
CIRCLE
  5
119
330
116
100
AcDbEntity
  8
0
  6
Continuous
 62
     0
370
    -2
390
5F
100
AcDbCircle
 10
0.0
 20
0.0
 30
0.0
 40
0.5
  0
ENDBLK
  5
11B
330
116
100
AcDbEntity
  8
0
100
AcDbBlockEnd
  0
BLOCK
  5
120
330
11C
100
AcDbEntity
  8
0
100
AcDbBlockBegin
  2
CDWK_PTTYP34
 70
     0
 10
0.0
 20
0.0
 30
0.0
  3
CDWK_PTTYP34
  1

  0
CIRCLE
  5
11D
330
11C
100
AcDbEntity
  8
0
  6
Continuous
 62
     0
370
    -2
390
5F
100
AcDbCircle
 10
0.0
 20
0.0
 30
0.0
 40
0.5
  0
LINE
  5
11E
330
11C
100
AcDbEntity
  8
0
  6
Continuous
 62
     0
370
    -2
390
5F
100
AcDbLine
 10
-0.4
 20
-0.3
 30
0.0
 11
0.3
 21
0.4
 31
0.0
  0
LINE
  5
11F
330
11C
100
AcDbEntity
  8
0
  6
Continuous
 62
     0
370
    -2
390
5F
100
AcDbLine
 10
-0.3
 20
-0.4
 30
0.0
 11
0.4
 21
0.3
 31
0.0
  0
ENDBLK
  5
121
330
11C
100
AcDbEntity
  8
0
100
AcDbBlockEnd
  0
BLOCK
  5
126
330
122
100
AcDbEntity
  8
0
100
AcDbBlockBegin
  2
CDWK_PTTYP35
 70
     0
 10
0.0
 20
0.0
 30
0.0
  3
CDWK_PTTYP35
  1

  0
LINE
  5
123
330
122
100
AcDbEntity
  8
0
  6
Continuous
 62
     0
370
    -2
390
5F
100
AcDbLine
 10
0.0
 20
0.2
 30
0.0
 11
0.0
 21
0.5
 31
0.0
  0
LINE
  5
124
330
122
100
AcDbEntity
  8
0
  6
Continuous
 62
     0
370
    -2
390
5F
100
AcDbLine
 10
0.0
 20
-0.2
 30
0.0
 11
0.0
 21
-0.5
 31
0.0
  0
CIRCLE
  5
125
330
122
100
AcDbEntity
  8
0
  6
Continuous
 62
     0
370
    -2
390
5F
100
AcDbCircle
 10
0.0
 20
0.0
 30
0.0
 40
0.2
  0
ENDBLK
  5
127
330
122
100
AcDbEntity
  8
0
100
AcDbBlockEnd
  0
BLOCK
  5
12E
330
128
100
AcDbEntity
  8
0
100
AcDbBlockBegin
  2
CDWK_PTTYP36
 70
     0
 10
0.0
 20
0.0
 30
0.0
  3
CDWK_PTTYP36
  1

  0
LINE
  5
129
330
128
100
AcDbEntity
  8
0
  6
Continuous
 62
     0
370
    -2
390
5F
100
AcDbLine
 10
-0.5
 20
0.2
 30
0.0
 11
0.5
 21
0.2
 31
0.0
  0
LINE
  5
12A
330
128
100
AcDbEntity
  8
0
  6
Continuous
 62
     0
370
    -2
390
5F
100
AcDbLine
 10
0.5
 20
0.2
 30
0.0
 11
0.5
 21
-0.2
 31
0.0
  0
LINE
  5
12B
330
128
100
AcDbEntity
  8
0
  6
Continuous
 62
     0
370
    -2
390
5F
100
AcDbLine
 10
0.5
 20
-0.2
 30
0.0
 11
-0.5
 21
-0.2
 31
0.0
  0
LINE
  5
12C
330
128
100
AcDbEntity
  8
0
  6
Continuous
 62
     0
370
    -2
390
5F
100
AcDbLine
 10
-0.5
 20
-0.2
 30
0.0
 11
-0.5
 21
0.2
 31
0.0
  0
HATCH
  5
12D
330
128
100
AcDbEntity
  8
0
  6
Continuous
 62
     0
370
    -2
390
5F
100
AcDbHatch
 10
0.0
 20
0.0
 30
0.0
210
0.0
220
0.0
230
1.0
  2
SOLID
 70
     1
 71
     0
 91
        1
 92
        3
 72
     0
 73
     1
 93
        3
 10
-0.5
 20
-0.2
 10
0.5
 20
-0.2
 10
0.5
 20
0.2
 97
        0
 75
     0
 76
     1
 98
        0
  0
ENDBLK
  5
12F
330
128
100
AcDbEntity
  8
0
100
AcDbBlockEnd
  0
BLOCK
  5
133
330
130
100
AcDbEntity
  8
0
100
AcDbBlockBegin
  2
CDWK_PTTYP37
 70
     0
 10
0.0
 20
0.0
 30
0.0
  3
CDWK_PTTYP37
  1

  0
HATCH
  5
131
330
130
100
AcDbEntity
  8
0
  6
Continuous
 62
     0
370
    -2
390
5F
100
AcDbHatch
 10
0.0
 20
0.0
 30
0.0
210
0.0
220
0.0
230
1.0
  2
SOLID
 70
     1
 71
     0
 91
        1
 92
        3
 72
     0
 73
     1
 93
      202
 10
-0.3535533905932738
 20
-0.3535533905932738
 10
-0.3485533905932738
 20
-0.3535533905932737
 10
-0.3435533905932738
 20
-0.3584836591895546
 10
-0.3385533905932738
 20
-0.3632782236961988
 10
-0.3335533905932738
 20
-0.367942389128785
 10
-0.3285533905932738
 20
-0.372481054046687
 10
-0.3235533905932738
 20
-0.3768987523588579
 10
-0.3185533905932738
 20
-0.3811996897107819
 10
-0.3135533905932738
 20
-0.3853877752881235
 10
-0.3085533905932737
 20
-0.3894666497242888
 10
-0.3035533905932737
 20
-0.3934397096803965
 10
-0.2985533905932737
 20
-0.3973101295704999
 10
-0.2935533905932737
 20
-0.4010808808273714
 10
-0.2885533905932737
 20
-0.4047547490409382
 10
-0.2835533905932737
 20
-0.4083343492496384
 10
-0.2785533905932737
 20
-0.4118221396222626
 10
-0.2735533905932737
 20
-0.4152204337324827
 10
-0.2685533905932737
 20
-0.4185314115988474
 10
-0.2635533905932737
 20
-0.4217571296384408
 10
-0.2585533905932737
 20
-0.4248995296617653
 10
-0.2535533905932737
 20
-0.4279604470190231
 10
-0.2485533905932737
 20
-0.4309416179932669
 10
-0.2435533905932737
 20
-0.4338446865234004
 10
-0.2385533905932737
 20
-0.4366712103293738
 10
-0.2335533905932737
 20
-0.439422666502825
 10
-0.2285533905932737
 20
-0.4421004566186126
 10
-0.2235533905932737
 20
-0.4447059114159811
 10
-0.2185533905932737
 20
-0.4472402950923041
 10
-0.2135533905932737
 20
-0.4497048092473372
 10
-0.2085533905932737
 20
-0.4521005965115692
 10
-0.2035533905932737
 20
-0.4544287438884664
 10
-0.1985533905932736
 20
-0.456690285837111
 10
-0.1935533905932736
 20
-0.45888620711884
 10
-0.1885533905932736
 20
-0.4610174454289638
 10
-0.1835533905932736
 20
-0.4630848938324164
 10
-0.1785533905932736
 20
-0.4650894030202291
 10
-0.1735533905932736
 20
-0.4670317834019928
 10
-0.1685533905932736
 20
-0.46891280704794
 10
-0.1635533905932736
 20
-0.4707332094929264
 10
-0.1585533905932736
 20
-0.4724936914133818
 10
-0.1535533905932736
 20
-0.4741949201872336
 10
-0.1485533905932736
 20
-0.4758375313458466
 10
-0.1435533905932736
 20
-0.4774221299261716
 10
-0.1385533905932736
 20
-0.4789492917305286
 10
-0.1335533905932736
 20
-0.4804195645007682
 10
-0.1285533905932736
 20
-0.4818334690129366
 10
-0.1235533905932736
 20
-0.4831915000980183
 10
-0.1185533905932736
 20
-0.4844941275938295
 10
-0.1135533905932736
 20
-0.4857417972326848
 10
-0.1085533905932736
 20
-0.4869349314690531
 10
-0.1035533905932736
 20
-0.4880739302510473
 10
-0.0985533905932736
 20
-0.489159171739258
 10
-0.0935533905932736
 20
-0.4901910129761353
 10
-0.0885533905932736
 20
-0.4911697905088447
 10
-0.0835533905932735
 20
-0.4920958209682695
 10
-0.0785533905932735
 20
-0.4929694016065986
 10
-0.0735533905932735
 20
-0.4937908107957261
 10
-0.0685533905932735
 20
-0.494560308488493
 10
-0.0635533905932735
 20
-0.4952781366446192
 10
-0.0585533905932735
 20
-0.4959445196230107
 10
-0.0535533905932735
 20
-0.4965596645419678
 10
-0.0485533905932735
 20
-0.4971237616086806
 10
-0.0435533905932735
 20
-0.4976369844192622
 10
-0.0385533905932735
 20
-0.4980994902304456
 10
-0.0335533905932735
 20
-0.4985114202039533
 10
-0.0285533905932735
 20
-0.4988728996244386
 10
-0.0235533905932735
 20
-0.4991840380917923
 10
-0.0185533905932735
 20
-0.49944492968851
 10
-0.0135533905932735
 20
-0.4996556531227215
 10
-0.0085533905932735
 20
-0.4998162718473921
 10
-0.0035533905932735
 20
-0.4999268341561182
 10
0.0014466094067265
 20
-0.499987373255857
 10
0.0064466094067265
 20
-0.4999979073168451
 10
0.0114466094067265
 20
-0.4999584394998819
 10
0.0164466094067265
 20
-0.4998689579610739
 10
0.0214466094067265
 20
-0.4997294358340547
 10
0.0264466094067265
 20
-0.4995398311896213
 10
0.0314466094067265
 20
-0.4993000869726422
 10
0.0364466094067265
 20
-0.4990101309160174
 10
0.0414466094067265
 20
-0.4986698754313855
 10
0.0464466094067265
 20
-0.498279217476192
 10
0.0514466094067265
 20
-0.4978380383966446
 10
0.0564466094067265
 20
-0.497346203745994
 10
0.0614466094067265
 20
-0.4968035630774849
 10
0.0664466094067264
 20
-0.4962099497112257
 10
0.0714466094067265
 20
-0.4955651804741228
 10
0.0764466094067265
 20
-0.4948690554119167
 10
0.0814466094067265
 20
-0.4941213574722463
 10
0.0864466094067265
 20
-0.4933218521575424
 10
0.0914466094067265
 20
-0.4924702871464235
 10
0.0964466094067265
 20
-0.4915663918821278
 10
0.1014466094067265
 20
-0.4906098771263643
 10
0.1064466094067265
 20
-0.4896004344768079
 10
0.1114466094067265
 20
-0.4885377358462822
 10
0.1164466094067265
 20
-0.4874214329014929
 10
0.1214466094067265
 20
-0.4862511564589613
 10
0.1264466094067265
 20
-0.4850265158355881
 10
0.1314466094067265
 20
-0.4837470981510305
 10
0.1364466094067265
 20
-0.482412467578809
 10
0.1414466094067265
 20
-0.4810221645427664
 10
0.1464466094067265
 20
-0.4795757048551781
 10
0.1514466094067265
 20
-0.4780725787924608
 10
0.1564466094067265
 20
-0.4765122501040308
 10
0.1614466094067265
 20
-0.4748941549494363
 10
0.1664466094067265
 20
-0.4732177007584056
 10
0.1714466094067265
 20
-0.4714822650079264
 10
0.1764466094067265
 20
-0.4696871939098801
 10
0.1814466094067266
 20
-0.4678318010021017
 10
0.1864466094067266
 20
-0.4659153656350076
 10
0.1914466094067266
 20
-0.4639371313451162
 10
0.1964466094067266
 20
-0.4618963041058764
 10
0.2014466094067266
 20
-0.4597920504451997
 10
0.2064466094067266
 20
-0.4576234954179405
 10
0.2114466094067266
 20
-0.4553897204202862
 10
0.2164466094067266
 20
-0.4530897608315588
 10
0.2214466094067266
 20
-0.45072260346729
 10
0.2264466094067266
 20
-0.4482871838255748
 10
0.2314466094067266
 20
-0.4457823831065977
 10
0.2364466094067266
 20
-0.4432070249828292
 10
0.2414466094067266
 20
-0.4405598720946596
 10
0.2464466094067266
 20
-0.4378396222431172
 10
0.2514466094067266
 20
-0.4350449042477435
 10
0.2564466094067266
 20
-0.4321742734336012
 10
0.2614466094067266
 20
-0.4292262067066663
 10
0.2664466094067266
 20
-0.4261990971714118
 10
0.2714466094067266
 20
-0.4230912482380831
 10
0.2764466094067266
 20
-0.4199008671598476
 10
0.2814466094067266
 20
-0.4166260579314797
 10
0.2864466094067266
 20
-0.4132648134712868
 10
0.2914466094067266
 20
-0.4098150069963156
 10
0.2964466094067266
 20
-0.4062743824871597
 10
0.3014466094067266
 20
-0.4026405441224911
 10
0.3064466094067266
 20
-0.3989109445442534
 10
0.3114466094067266
 20
-0.3950828717916294
 10
0.3164466094067266
 20
-0.391153434714632
 10
0.3214466094067266
 20
-0.3871195466454601
 10
0.3264466094067267
 20
-0.3829779070663467
 10
0.3314466094067267
 20
-0.3787249809648844
 10
0.3364466094067267
 20
-0.3743569755097196
 10
0.3414466094067267
 20
-0.3698698136084067
 10
0.3464466094067267
 20
-0.3652591038217257
 10
0.3514466094067267
 20
-0.3605201060004601
 10
0.3564466094067267
 20
-0.3556476918757041
 10
0.3614466094067267
 20
-0.3506362996645505
 10
0.3664466094067267
 20
-0.34547988153926
 10
0.3714466094067267
 20
-0.3401718425359658
 10
0.3764466094067267
 20
-0.334704969129899
 10
0.3814466094067267
 20
-0.3290713452523318
 10
0.3864466094067267
 20
-0.3232622529342269
 10
0.3914466094067267
 20
-0.3172680539828188
 10
0.3964466094067267
 20
-0.3110780480586465
 10
0.4014466094067267
 20
-0.304680301118911
 10
0.4064466094067267
 20
-0.2980614362775617
 10
0.4114466094067267
 20
-0.291206376478565
 10
0.4164466094067267
 20
-0.2840980246459106
 10
0.4214466094067267
 20
-0.276716861635935
 10
0.4264466094067267
 20
-0.2690404345439063
 10
0.4314466094067267
 20
-0.2610426963649944
 10
0.4364466094067267
 20
-0.2526931404518915
 10
0.4414466094067268
 20
-0.2439556458403291
 10
0.4464466094067268
 20
-0.2347869056044327
 10
0.4514466094067268
 20
-0.2251342376211081
 10
0.4564466094067268
 20
-0.2149324518428296
 10
0.4614466094067268
 20
-0.2040992228331676
 10
0.4664466094067268
 20
-0.1925279893081412
 10
0.4714466094067268
 20
-0.1800765408735088
 10
0.4764466094067268
 20
-0.1665475742210051
 10
0.4814466094067268
 20
-0.1516529867323223
 10
0.4864466094067268
 20
-0.1349413290684758
 10
0.4914466094067268
 20
-0.1156274024472547
 10
0.4964466094067268
 20
-0.0920881648347501
 10
0.5
 20
0.0
 10
0.495
 20
0.0
 10
0.49
 20
0.0705336798983295
 10
0.485
 20
0.0994987437106621
 10
0.48
 20
0.1215524578114322
 10
0.475
 20
0.14
 10
0.47
 20
0.15612494995996
 10
0.465
 20
0.1705872210923199
 10
0.46
 20
0.1837797594948911
 10
0.455
 20
0.1959591794226544
 10
0.45
 20
0.2073041244162789
 10
0.445
 20
0.2179449471770338
 10
0.4399999999999999
 20
0.2279802623035601
 10
0.4349999999999999
 20
0.2374868417407584
 10
0.4299999999999999
 20
0.2465258607124211
 10
0.4249999999999999
 20
0.2551470164434615
 10
0.4199999999999999
 20
0.2633913438213186
 10
0.4149999999999999
 20
0.2712931993250108
 10
0.4099999999999999
 20
0.2788816953476869
 10
0.4049999999999999
 20
0.2861817604250838
 10
0.3999999999999999
 20
0.2932149382279151
 10
0.3949999999999999
 20
0.3000000000000002
 10
0.3899999999999999
 20
0.3065534211193868
 10
0.3849999999999999
 20
0.3128897569432404
 10
0.3799999999999999
 20
0.3190219428189855
 10
0.3749999999999999
 20
0.3249615361854385
 10
0.3699999999999999
 20
0.330718913883074
 10
0.3649999999999999
 20
0.3363034344160049
 10
0.3599999999999999
 20
0.3417235724968357
 10
0.3549999999999999
 20
0.3469870314579496
 10
0.3535533905932738
 20
0.3535533905932738
 97
        0
 75
     0
 76
     1
 98
        0
  0
CIRCLE
  5
132
330
130
100
AcDbEntity
  8
0
  6
Continuous
 62
     0
370
    -2
390
5F
100
AcDbCircle
 10
0.0
 20
0.0
 30
0.0
 40
0.5
  0
ENDBLK
  5
134
330
130
100
AcDbEntity
  8
0
100
AcDbBlockEnd
  0
BLOCK
  5
139
330
135
100
AcDbEntity
  8
0
100
AcDbBlockBegin
  2
CDWK_PTTYP38
 70
     0
 10
0.0
 20
0.0
 30
0.0
  3
CDWK_PTTYP38
  1

  0
HATCH
  5
136
330
135
100
AcDbEntity
  8
0
  6
Continuous
 62
     0
370
    -2
390
5F
100
AcDbHatch
 10
0.0
 20
0.0
 30
0.0
210
0.0
220
0.0
230
1.0
  2
SOLID
 70
     1
 71
     0
 91
        1
 92
        3
 72
     0
 73
     1
 93
      102
 10
0.0
 20
0.0
 10
0.0
 20
0.5
 10
0.005
 20
0.5
 10
0.01
 20
0.4999749993749688
 10
0.015
 20
0.4998999899979995
 10
0.02
 20
0.4997749493522059
 10
0.025
 20
0.4995998398718718
 10
0.03
 20
0.4993746088859545
 10
0.035
 20
0.4990991885387112
 10
0.04
 20
0.4987734956871706
 10
0.045
 20
0.4983974317750845
 10
0.05
 20
0.4979708826829135
 10
0.055
 20
0.49749371855331
 10
0.06
 20
0.4969657935914704
 10
0.065
 20
0.4963869458396343
 10
0.07
 20
0.4957569969249047
 10
0.075
 20
0.4950757517794626
 10
0.08
 20
0.4943429983321297
 10
0.085
 20
0.4935585071701227
 10
0.09
 20
0.4927220311697053
 10
0.095
 20
0.4918333050943175
 10
0.1
 20
0.4908920451586071
 10
0.105
 20
0.4898979485566356
 10
0.11
 20
0.4888506929523574
 10
0.115
 20
0.4877499359302879
 10
0.12
 20
0.4865953144040744
 10
0.125
 20
0.4853864439804639
 10
0.13
 20
0.4841229182759271
 10
0.135
 20
0.4828043081829325
 10
0.14
 20
0.4814301610825811
 10
0.145
 20
0.48
 10
0.15
 20
0.478513322698543
 10
0.1550000000000001
 20
0.4769696007084728
 10
0.1600000000000001
 20
0.4753682782853731
 10
0.1650000000000001
 20
0.4737087712930804
 10
0.1700000000000001
 20
0.4719904660054056
 10
0.1750000000000001
 20
0.4702127178203498
 10
0.1800000000000001
 20
0.4683748498798799
 10
0.1850000000000001
 20
0.466476151587624
 10
0.1900000000000001
 20
0.4645158770160606
 10
0.1950000000000001
 20
0.4624932431938871
 10
0.2000000000000001
 20
0.460407428263272
 10
0.2050000000000001
 20
0.4582575694955839
 10
0.2100000000000001
 20
0.4560427611529427
 10
0.2150000000000001
 20
0.4537620521815371
 10
0.2200000000000001
 20
0.4514144437210665
 10
0.2250000000000001
 20
0.4489988864128729
 10
0.2300000000000001
 20
0.4465142774872937
 10
0.2350000000000001
 20
0.4439594576084622
 10
0.2400000000000001
 20
0.4413332074521472
 10
0.2450000000000001
 20
0.4386342439892261
 10
0.2500000000000001
 20
0.4358612164439502
 10
0.2550000000000001
 20
0.4330127018922192
 10
0.2600000000000001
 20
0.4300872004605577
 10
0.2650000000000001
 20
0.4270831300812524
 10
0.2700000000000001
 20
0.423998820753077
 10
0.2750000000000001
 20
0.4208325082500162
 10
0.2800000000000001
 20
0.4175823272122516
 10
0.2850000000000001
 20
0.4142463035441595
 10
0.2900000000000001
 20
0.4108223460329293
 10
0.2950000000000002
 20
0.4073082370883259
 10
0.3000000000000002
 20
0.403701622488689
 10
0.3050000000000002
 20
0.3999999999999999
 10
0.3100000000000002
 20
0.3962007067131506
 10
0.3150000000000002
 20
0.3923009049186605
 10
0.3200000000000002
 20
0.3882975663070783
 10
0.3250000000000002
 20
0.3841874542459708
 10
0.3300000000000002
 20
0.3799671038392664
 10
0.3350000000000002
 20
0.3756327994198588
 10
0.3400000000000002
 20
0.3711805490593491
 10
0.3450000000000002
 20
0.366606055596467
 10
0.3500000000000002
 20
0.3619046835839512
 10
0.3550000000000002
 20
0.3570714214271423
 10
0.3600000000000002
 20
0.3521008378291649
 10
0.3650000000000002
 20
0.3469870314579492
 10
0.3700000000000002
 20
0.3417235724968353
 10
0.3750000000000002
 20
0.3363034344160045
 10
0.3800000000000002
 20
0.3307189138830736
 10
0.3850000000000002
 20
0.3249615361854382
 10
0.3900000000000002
 20
0.3190219428189851
 10
0.3950000000000002
 20
0.31288975694324
 10
0.4000000000000002
 20
0.3065534211193863
 10
0.4050000000000002
 20
0.2999999999999997
 10
0.4100000000000003
 20
0.2932149382279147
 10
0.4150000000000003
 20
0.2861817604250834
 10
0.4200000000000003
 20
0.2788816953476864
 10
0.4250000000000003
 20
0.2712931993250103
 10
0.4300000000000003
 20
0.263391343821318
 10
0.4350000000000003
 20
0.255147016443461
 10
0.4400000000000003
 20
0.2465258607124206
 10
0.4450000000000003
 20
0.2374868417407578
 10
0.4500000000000003
 20
0.2279802623035594
 10
0.4550000000000003
 20
0.2179449471770331
 10
0.4600000000000003
 20
0.2073041244162782
 10
0.4650000000000003
 20
0.1959591794226536
 10
0.4700000000000003
 20
0.1837797594948903
 10
0.4750000000000003
 20
0.170587221092319
 10
0.4800000000000003
 20
0.156124949959959
 10
0.4850000000000003
 20
0.1399999999999989
 10
0.4900000000000003
 20
0.1215524578114309
 10
0.4950000000000003
 20
0.0994987437106604
 10
0.5
 20
0.0
 97
        0
 75
     0
 76
     1
 98
        0
  0
HATCH
  5
137
330
135
100
AcDbEntity
  8
0
  6
Continuous
 62
     0
370
    -2
390
5F
100
AcDbHatch
 10
0.0
 20
0.0
 30
0.0
210
0.0
220
0.0
230
1.0
  2
SOLID
 70
     1
 71
     0
 91
        1
 92
        3
 72
     0
 73
     1
 93
      102
 10
0.0
 20
0.0
 10
-0.5
 20
0.0
 10
-0.495
 20
0.0
 10
-0.49
 20
-0.0705336798983295
 10
-0.485
 20
-0.0994987437106621
 10
-0.48
 20
-0.1215524578114322
 10
-0.475
 20
-0.14
 10
-0.47
 20
-0.15612494995996
 10
-0.465
 20
-0.1705872210923199
 10
-0.46
 20
-0.1837797594948911
 10
-0.455
 20
-0.1959591794226544
 10
-0.45
 20
-0.2073041244162789
 10
-0.445
 20
-0.2179449471770338
 10
-0.4399999999999999
 20
-0.2279802623035601
 10
-0.4349999999999999
 20
-0.2374868417407584
 10
-0.4299999999999999
 20
-0.2465258607124211
 10
-0.4249999999999999
 20
-0.2551470164434615
 10
-0.4199999999999999
 20
-0.2633913438213186
 10
-0.4149999999999999
 20
-0.2712931993250108
 10
-0.4099999999999999
 20
-0.2788816953476869
 10
-0.4049999999999999
 20
-0.2861817604250838
 10
-0.3999999999999999
 20
-0.2932149382279151
 10
-0.3949999999999999
 20
-0.3000000000000002
 10
-0.3899999999999999
 20
-0.3065534211193868
 10
-0.3849999999999999
 20
-0.3128897569432404
 10
-0.3799999999999999
 20
-0.3190219428189855
 10
-0.3749999999999999
 20
-0.3249615361854385
 10
-0.3699999999999999
 20
-0.330718913883074
 10
-0.3649999999999999
 20
-0.3363034344160049
 10
-0.3599999999999999
 20
-0.3417235724968357
 10
-0.3549999999999999
 20
-0.3469870314579496
 10
-0.3499999999999999
 20
-0.3521008378291652
 10
-0.3449999999999999
 20
-0.3570714214271427
 10
-0.3399999999999999
 20
-0.3619046835839516
 10
-0.3349999999999999
 20
-0.3666060555964674
 10
-0.3299999999999998
 20
-0.3711805490593494
 10
-0.3249999999999998
 20
-0.3756327994198591
 10
-0.3199999999999998
 20
-0.3799671038392667
 10
-0.3149999999999998
 20
-0.3841874542459711
 10
-0.3099999999999998
 20
-0.3882975663070786
 10
-0.3049999999999998
 20
-0.3923009049186608
 10
-0.2999999999999998
 20
-0.3962007067131507
 10
-0.2949999999999998
 20
-0.4000000000000001
 10
-0.2899999999999998
 20
-0.4037016224886891
 10
-0.2849999999999998
 20
-0.4073082370883261
 10
-0.2799999999999998
 20
-0.4108223460329296
 10
-0.2749999999999998
 20
-0.4142463035441597
 10
-0.2699999999999998
 20
-0.4175823272122518
 10
-0.2649999999999998
 20
-0.4208325082500164
 10
-0.2599999999999998
 20
-0.4239988207530773
 10
-0.2549999999999998
 20
-0.4270831300812526
 10
-0.2499999999999998
 20
-0.4300872004605579
 10
-0.2449999999999998
 20
-0.4330127018922195
 10
-0.2399999999999998
 20
-0.4358612164439503
 10
-0.2349999999999998
 20
-0.4386342439892263
 10
-0.2299999999999998
 20
-0.4413332074521473
 10
-0.2249999999999998
 20
-0.4439594576084624
 10
-0.2199999999999998
 20
-0.4465142774872939
 10
-0.2149999999999997
 20
-0.4489988864128731
 10
-0.2099999999999997
 20
-0.4514144437210667
 10
-0.2049999999999997
 20
-0.4537620521815372
 10
-0.1999999999999997
 20
-0.4560427611529429
 10
-0.1949999999999997
 20
-0.4582575694955841
 10
-0.1899999999999997
 20
-0.4604074282632722
 10
-0.1849999999999997
 20
-0.4624932431938872
 10
-0.1799999999999997
 20
-0.4645158770160608
 10
-0.1749999999999997
 20
-0.4664761515876241
 10
-0.1699999999999997
 20
-0.46837484987988
 10
-0.1649999999999997
 20
-0.47021271782035
 10
-0.1599999999999997
 20
-0.4719904660054058
 10
-0.1549999999999997
 20
-0.4737087712930805
 10
-0.1499999999999997
 20
-0.4753682782853733
 10
-0.1449999999999997
 20
-0.4769696007084729
 10
-0.1399999999999997
 20
-0.4785133226985431
 10
-0.1349999999999997
 20
-0.4800000000000001
 10
-0.1299999999999997
 20
-0.4814301610825812
 10
-0.1249999999999997
 20
-0.4828043081829325
 10
-0.1199999999999997
 20
-0.4841229182759272
 10
-0.1149999999999997
 20
-0.485386443980464
 10
-0.1099999999999997
 20
-0.4865953144040744
 10
-0.1049999999999996
 20
-0.487749935930288
 10
-0.0999999999999996
 20
-0.4888506929523574
 10
-0.0949999999999996
 20
-0.4898979485566357
 10
-0.0899999999999996
 20
-0.4908920451586072
 10
-0.0849999999999996
 20
-0.4918333050943176
 10
-0.0799999999999996
 20
-0.4927220311697053
 10
-0.0749999999999996
 20
-0.4935585071701227
 10
-0.0699999999999996
 20
-0.4943429983321298
 10
-0.0649999999999996
 20
-0.4950757517794626
 10
-0.0599999999999996
 20
-0.4957569969249048
 10
-0.0549999999999996
 20
-0.4963869458396343
 10
-0.0499999999999996
 20
-0.4969657935914705
 10
-0.0449999999999996
 20
-0.49749371855331
 10
-0.0399999999999996
 20
-0.4979708826829135
 10
-0.0349999999999996
 20
-0.4983974317750846
 10
-0.0299999999999996
 20
-0.4987734956871706
 10
-0.0249999999999996
 20
-0.4990991885387112
 10
-0.0199999999999996
 20
-0.4993746088859545
 10
-0.0149999999999996
 20
-0.4995998398718719
 10
-0.0099999999999996
 20
-0.499774949352206
 10
-0.0049999999999996
 20
-0.4998999899979995
 10
0.0
 20
-0.5
 97
        0
 75
     0
 76
     1
 98
        0
  0
CIRCLE
  5
138
330
135
100
AcDbEntity
  8
0
  6
Continuous
 62
     0
370
    -2
390
5F
100
AcDbCircle
 10
0.0
 20
0.0
 30
0.0
 40
0.5
  0
ENDBLK
  5
13A
330
135
100
AcDbEntity
  8
0
100
AcDbBlockEnd
  0
BLOCK
  5
143
330
13B
100
AcDbEntity
  8
0
100
AcDbBlockBegin
  2
CDWK_PTTYP41
 70
     0
 10
0.0
 20
0.0
 30
0.0
  3
CDWK_PTTYP41
  1

  0
LINE
  5
13C
330
13B
100
AcDbEntity
  8
0
  6
Continuous
 62
     0
370
    -2
390
5F
100
AcDbLine
 10
-0.5
 20
0.5
 30
0.0
 11
0.5
 21
0.5
 31
0.0
  0
LINE
  5
13D
330
13B
100
AcDbEntity
  8
0
  6
Continuous
 62
     0
370
    -2
390
5F
100
AcDbLine
 10
0.5
 20
0.5
 30
0.0
 11
0.5
 21
-0.5
 31
0.0
  0
LINE
  5
13E
330
13B
100
AcDbEntity
  8
0
  6
Continuous
 62
     0
370
    -2
390
5F
100
AcDbLine
 10
0.5
 20
-0.5
 30
0.0
 11
-0.5
 21
-0.5
 31
0.0
  0
LINE
  5
13F
330
13B
100
AcDbEntity
  8
0
  6
Continuous
 62
     0
370
    -2
390
5F
100
AcDbLine
 10
-0.5
 20
-0.5
 30
0.0
 11
-0.5
 21
0.5
 31
0.0
  0
LINE
  5
140
330
13B
100
AcDbEntity
  8
0
  6
Continuous
 62
     0
370
    -2
390
5F
100
AcDbLine
 10
-0.375
 20
0.25
 30
0.0
 11
0.375
 21
0.25
 31
0.0
  0
LINE
  5
141
330
13B
100
AcDbEntity
  8
0
  6
Continuous
 62
     0
370
    -2
390
5F
100
AcDbLine
 10
-0.375
 20
0.0
 30
0.0
 11
0.375
 21
0.0
 31
0.0
  0
LINE
  5
142
330
13B
100
AcDbEntity
  8
0
  6
Continuous
 62
     0
370
    -2
390
5F
100
AcDbLine
 10
-0.375
 20
-0.25
 30
0.0
 11
0.375
 21
-0.25
 31
0.0
  0
ENDBLK
  5
144
330
13B
100
AcDbEntity
  8
0
100
AcDbBlockEnd
  0
BLOCK
  5
14C
330
145
100
AcDbEntity
  8
0
100
AcDbBlockBegin
  2
CDWK_PTTYP42
 70
     0
 10
0.0
 20
0.0
 30
0.0
  3
CDWK_PTTYP42
  1

  0
LINE
  5
146
330
145
100
AcDbEntity
  8
0
  6
Continuous
 62
     0
370
    -2
390
5F
100
AcDbLine
 10
-0.5
 20
0.5
 30
0.0
 11
0.5
 21
0.5
 31
0.0
  0
LINE
  5
147
330
145
100
AcDbEntity
  8
0
  6
Continuous
 62
     0
370
    -2
390
5F
100
AcDbLine
 10
0.5
 20
0.5
 30
0.0
 11
0.5
 21
-0.5
 31
0.0
  0
LINE
  5
148
330
145
100
AcDbEntity
  8
0
  6
Continuous
 62
     0
370
    -2
390
5F
100
AcDbLine
 10
0.5
 20
-0.5
 30
0.0
 11
-0.5
 21
-0.5
 31
0.0
  0
LINE
  5
149
330
145
100
AcDbEntity
  8
0
  6
Continuous
 62
     0
370
    -2
390
5F
100
AcDbLine
 10
-0.5
 20
-0.5
 30
0.0
 11
-0.5
 21
0.5
 31
0.0
  0
LINE
  5
14A
330
145
100
AcDbEntity
  8
0
  6
Continuous
 62
     0
370
    -2
390
5F
100
AcDbLine
 10
-0.375
 20
0.125
 30
0.0
 11
0.375
 21
0.125
 31
0.0
  0
LINE
  5
14B
330
145
100
AcDbEntity
  8
0
  6
Continuous
 62
     0
370
    -2
390
5F
100
AcDbLine
 10
-0.375
 20
-0.125
 30
0.0
 11
0.375
 21
-0.125
 31
0.0
  0
ENDBLK
  5
14D
330
145
100
AcDbEntity
  8
0
100
AcDbBlockEnd
  0
BLOCK
  5
152
330
14E
100
AcDbEntity
  8
0
100
AcDbBlockBegin
  2
CDWK_PTTYP43
 70
     0
 10
0.0
 20
0.0
 30
0.0
  3
CDWK_PTTYP43
  1

  0
CIRCLE
  5
14F
330
14E
100
AcDbEntity
  8
0
  6
Continuous
 62
     0
370
    -2
390
5F
100
AcDbCircle
 10
0.0
 20
0.0
 30
0.0
 40
0.5
  0
LINE
  5
150
330
14E
100
AcDbEntity
  8
0
  6
Continuous
 62
     0
370
    -2
390
5F
100
AcDbLine
 10
-0.375
 20
0.166
 30
0.0
 11
0.375
 21
0.166
 31
0.0
  0
LINE
  5
151
330
14E
100
AcDbEntity
  8
0
  6
Continuous
 62
     0
370
    -2
390
5F
100
AcDbLine
 10
-0.375
 20
-0.166
 30
0.0
 11
0.375
 21
-0.166
 31
0.0
  0
ENDBLK
  5
153
330
14E
100
AcDbEntity
  8
0
100
AcDbBlockEnd
  0
BLOCK
  5
15B
330
154
100
AcDbEntity
  8
0
100
AcDbBlockBegin
  2
CDWK_PTTYP44
 70
     0
 10
0.0
 20
0.0
 30
0.0
  3
CDWK_PTTYP44
  1

  0
CIRCLE
  5
155
330
154
100
AcDbEntity
  8
0
  6
Continuous
 62
     0
370
    -2
390
5F
100
AcDbCircle
 10
0.0
 20
0.0
 30
0.0
 40
0.5
  0
LINE
  5
156
330
154
100
AcDbEntity
  8
0
  6
Continuous
 62
     0
370
    -2
390
5F
100
AcDbLine
 10
-0.375
 20
0.333
 30
0.0
 11
0.375
 21
0.333
 31
0.0
  0
LINE
  5
157
330
154
100
AcDbEntity
  8
0
  6
Continuous
 62
     0
370
    -2
390
5F
100
AcDbLine
 10
-0.375
 20
0.166
 30
0.0
 11
0.375
 21
0.166
 31
0.0
  0
LINE
  5
158
330
154
100
AcDbEntity
  8
0
  6
Continuous
 62
     0
370
    -2
390
5F
100
AcDbLine
 10
-0.375
 20
0.0
 30
0.0
 11
0.375
 21
0.0
 31
0.0
  0
LINE
  5
159
330
154
100
AcDbEntity
  8
0
  6
Continuous
 62
     0
370
    -2
390
5F
100
AcDbLine
 10
-0.375
 20
-0.166
 30
0.0
 11
0.375
 21
-0.166
 31
0.0
  0
LINE
  5
15A
330
154
100
AcDbEntity
  8
0
  6
Continuous
 62
     0
370
    -2
390
5F
100
AcDbLine
 10
-0.375
 20
-0.333
 30
0.0
 11
0.375
 21
-0.333
 31
0.0
  0
ENDBLK
  5
15C
330
154
100
AcDbEntity
  8
0
100
AcDbBlockEnd
  0
BLOCK
  5
160
330
15D
100
AcDbEntity
  8
0
100
AcDbBlockBegin
  2
CDWK_PTTYP45
 70
     0
 10
0.0
 20
0.0
 30
0.0
  3
CDWK_PTTYP45
  1

  0
ELLIPSE
  5
15E
330
15D
100
AcDbEntity
  8
0
  6
Continuous
 62
     0
370
    -2
390
5F
100
AcDbEllipse
 10
0.0
 20
0.0
 30
0.0
 11
0.5
 21
0.0
 31
0.0
210
0.0
220
0.0
230
1.0
 40
0.82
 41
0.0
 42
6.283185307179586
  0
CIRCLE
  5
15F
330
15D
100
AcDbEntity
  8
0
  6
Continuous
 62
     0
370
    -2
390
5F
100
AcDbCircle
 10
-0.235
 20
0.0
 30
0.0
 40
0.26
  0
ENDBLK
  5
161
330
15D
100
AcDbEntity
  8
0
100
AcDbBlockEnd
  0
BLOCK
  5
165
330
162
100
AcDbEntity
  8
0
100
AcDbBlockBegin
  2
CDWK_PTTYP46
 70
     0
 10
0.0
 20
0.0
 30
0.0
  3
CDWK_PTTYP46
  1

  0
ELLIPSE
  5
163
330
162
100
AcDbEntity
  8
0
  6
Continuous
 62
     0
370
    -2
390
5F
100
AcDbEllipse
 10
0.0
 20
0.0
 30
0.0
 11
0.5
 21
0.0
 31
0.0
210
0.0
220
0.0
230
1.0
 40
0.82
 41
0.0
 42
6.283185307179586
  0
CIRCLE
  5
164
330
162
100
AcDbEntity
  8
0
  6
Continuous
 62
     0
370
    -2
390
5F
100
AcDbCircle
 10
0.0
 20
0.15
 30
0.0
 40
0.26
  0
ENDBLK
  5
166
330
162
100
AcDbEntity
  8
0
100
AcDbBlockEnd
  0
BLOCK
  5
16D
330
167
100
AcDbEntity
  8
0
100
AcDbBlockBegin
  2
CDWK_PTTYP47
 70
     0
 10
0.0
 20
0.0
 30
0.0
  3
CDWK_PTTYP47
  1

  0
LINE
  5
168
330
167
100
AcDbEntity
  8
0
  6
Continuous
 62
     0
370
    -2
390
5F
100
AcDbLine
 10
-0.5
 20
0.166
 30
0.0
 11
0.5
 21
0.166
 31
0.0
  0
LINE
  5
169
330
167
100
AcDbEntity
  8
0
  6
Continuous
 62
     0
370
    -2
390
5F
100
AcDbLine
 10
0.5
 20
0.166
 30
0.0
 11
0.5
 21
-0.166
 31
0.0
  0
LINE
  5
16A
330
167
100
AcDbEntity
  8
0
  6
Continuous
 62
     0
370
    -2
390
5F
100
AcDbLine
 10
0.5
 20
-0.166
 30
0.0
 11
-0.5
 21
-0.166
 31
0.0
  0
LINE
  5
16B
330
167
100
AcDbEntity
  8
0
  6
Continuous
 62
     0
370
    -2
390
5F
100
AcDbLine
 10
-0.5
 20
-0.166
 30
0.0
 11
-0.5
 21
0.166
 31
0.0
  0
CIRCLE
  5
16C
330
167
100
AcDbEntity
  8
0
  6
Continuous
 62
     0
370
    -2
390
5F
100
AcDbCircle
 10
0.0
 20
-0.313
 30
0.0
 40
0.4
  0
ENDBLK
  5
16E
330
167
100
AcDbEntity
  8
0
100
AcDbBlockEnd
  0
BLOCK
  5
173
330
170
100
AcDbEntity
  8
0
100
AcDbBlockBegin
  2
CDWK_PTTYP48
 70
     0
 10
0.0
 20
0.0
 30
0.0
  3
CDWK_PTTYP48
  1

  0
CIRCLE
  5
171
330
170
100
AcDbEntity
  8
0
  6
CADWORK_3
 62
     0
 48
0.1
370
    -2
390
5F
100
AcDbCircle
 10
0.0
 20
0.0
 30
0.0
 40
0.5
  0
CIRCLE
  5
172
330
170
100
AcDbEntity
  8
0
  6
Continuous
 62
     0
370
    -2
390
5F
100
AcDbCircle
 10
0.0
 20
0.0
 30
0.0
 40
0.25
  0
ENDBLK
  5
174
330
170
100
AcDbEntity
  8
0
100
AcDbBlockEnd
  0
BLOCK
  5
17A
330
175
100
AcDbEntity
  8
0
100
AcDbBlockBegin
  2
CDWK_PTTYP49
 70
     0
 10
0.0
 20
0.0
 30
0.0
  3
CDWK_PTTYP49
  1

  0
LINE
  5
176
330
175
100
AcDbEntity
  8
0
  6
Continuous
 62
     0
370
    -2
390
5F
100
AcDbLine
 10
-0.5
 20
0.166
 30
0.0
 11
0.5
 21
0.166
 31
0.0
  0
LINE
  5
177
330
175
100
AcDbEntity
  8
0
  6
Continuous
 62
     0
370
    -2
390
5F
100
AcDbLine
 10
0.5
 20
0.166
 30
0.0
 11
0.5
 21
-0.166
 31
0.0
  0
LINE
  5
178
330
175
100
AcDbEntity
  8
0
  6
Continuous
 62
     0
370
    -2
390
5F
100
AcDbLine
 10
0.5
 20
-0.166
 30
0.0
 11
-0.5
 21
-0.166
 31
0.0
  0
LINE
  5
179
330
175
100
AcDbEntity
  8
0
  6
Continuous
 62
     0
370
    -2
390
5F
100
AcDbLine
 10
-0.5
 20
-0.166
 30
0.0
 11
-0.5
 21
0.166
 31
0.0
  0
ENDBLK
  5
17B
330
175
100
AcDbEntity
  8
0
100
AcDbBlockEnd
  0
BLOCK
  5
184
330
17C
100
AcDbEntity
  8
0
100
AcDbBlockBegin
  2
CDWK_PTTYP50
 70
     0
 10
0.0
 20
0.0
 30
0.0
  3
CDWK_PTTYP50
  1

  0
LINE
  5
17D
330
17C
100
AcDbEntity
  8
0
  6
Continuous
 62
     0
370
    -2
390
5F
100
AcDbLine
 10
-0.5
 20
0.166
 30
0.0
 11
0.5
 21
0.166
 31
0.0
  0
LINE
  5
17E
330
17C
100
AcDbEntity
  8
0
  6
Continuous
 62
     0
370
    -2
390
5F
100
AcDbLine
 10
0.5
 20
0.166
 30
0.0
 11
0.5
 21
-0.166
 31
0.0
  0
LINE
  5
17F
330
17C
100
AcDbEntity
  8
0
  6
Continuous
 62
     0
370
    -2
390
5F
100
AcDbLine
 10
0.5
 20
-0.166
 30
0.0
 11
-0.5
 21
-0.166
 31
0.0
  0
LINE
  5
180
330
17C
100
AcDbEntity
  8
0
  6
Continuous
 62
     0
370
    -2
390
5F
100
AcDbLine
 10
-0.5
 20
-0.166
 30
0.0
 11
-0.5
 21
0.166
 31
0.0
  0
LINE
  5
181
330
17C
100
AcDbEntity
  8
0
  6
Continuous
 62
     0
370
    -2
390
5F
100
AcDbLine
 10
-0.25
 20
-0.166
 30
0.0
 11
-0.25
 21
0.166
 31
0.0
  0
LINE
  5
182
330
17C
100
AcDbEntity
  8
0
  6
Continuous
 62
     0
370
    -2
390
5F
100
AcDbLine
 10
0.0
 20
-0.166
 30
0.0
 11
0.0
 21
0.166
 31
0.0
  0
LINE
  5
183
330
17C
100
AcDbEntity
  8
0
  6
Continuous
 62
     0
370
    -2
390
5F
100
AcDbLine
 10
0.25
 20
-0.166
 30
0.0
 11
0.25
 21
0.166
 31
0.0
  0
ENDBLK
  5
185
330
17C
100
AcDbEntity
  8
0
100
AcDbBlockEnd
  0
BLOCK
  5
189
330
186
100
AcDbEntity
  8
0
100
AcDbBlockBegin
  2
CDWK_PTTYP51
 70
     0
 10
0.0
 20
0.0
 30
0.0
  3
CDWK_PTTYP51
  1

  0
SPLINE
  5
187
330
186
100
AcDbEntity
  8
0
  6
Continuous
 62
     0
370
    -2
390
5F
100
AcDbSpline
210
0.0
220
0.0
230
1.0
 70
  1064
 71
     3
 72
    12
 73
     8
 74
     6
 42
0.0000000001
 43
0.0000000001
 44
0.0000000001
 40
0.0
 40
0.0
 40
0.0
 40
0.0
 40
0.1690118339052032
 40
0.5175774661755118
 40
0.8011704844252565
 40
0.9154070810132151
 40
0.975822310881188
 40
0.975822310881188
 40
0.975822310881188
 40
0.975822310881188
 10
-0.5
 20
-0.077
 30
0.0
 10
-0.443824324006723
 20
-0.0900581618560981
 30
0.0
 10
-0.2717933876546281
 20
-0.1300471387828842
 30
0.0
 10
-0.0276699186086479
 20
-0.0006977790990417
 30
0.0
 10
0.2303349729129116
 20
0.0817803270207037
 30
0.0
 10
0.3686157174766292
 20
0.0066250198607167
 30
0.0
 10
0.4216533294581816
 20
-0.0168719667726145
 30
0.0
 10
0.44
 20
-0.025
 30
0.0
 11
-0.5
 21
-0.077
 31
0.0
 11
-0.333
 21
-0.103
 31
0.0
 11
0.0
 21
0.0
 31
0.0
 11
0.28
 21
0.045
 31
0.0
 11
0.385
 21
0.0
 31
0.0
 11
0.44
 21
-0.025
 31
0.0
  0
HATCH
  5
188
330
186
100
AcDbEntity
  8
0
  6
Continuous
 62
     0
370
    -2
390
5F
100
AcDbHatch
 10
0.0
 20
0.0
 30
0.0
210
0.0
220
0.0
230
1.0
  2
SOLID
 70
     1
 71
     0
 91
        1
 92
        3
 72
     0
 73
     1
 93
        3
 10
0.365
 20
-0.05
 10
0.5
 20
-0.042
 10
0.395
 20
0.045
 97
        0
 75
     0
 76
     1
 98
        0
  0
ENDBLK
  5
18A
330
186
100
AcDbEntity
  8
0
100
AcDbBlockEnd
  0
BLOCK
  5
18F
330
18B
100
AcDbEntity
  8
0
100
AcDbBlockBegin
  2
CDWK_PTTYP52
 70
     0
 10
0.0
 20
0.0
 30
0.0
  3
CDWK_PTTYP52
  1

  0
LINE
  5
18C
330
18B
100
AcDbEntity
  8
0
  6
Continuous
 62
     0
370
    -2
390
5F
100
AcDbLine
 10
-0.5
 20
-0.289
 30
0.0
 11
0.5
 21
-0.289
 31
0.0
  0
LINE
  5
18D
330
18B
100
AcDbEntity
  8
0
  6
Continuous
 62
     0
370
    -2
390
5F
100
AcDbLine
 10
0.5
 20
-0.289
 30
0.0
 11
0.0
 21
0.577
 31
0.0
  0
LINE
  5
18E
330
18B
100
AcDbEntity
  8
0
  6
Continuous
 62
     0
370
    -2
390
5F
100
AcDbLine
 10
0.0
 20
0.577
 30
0.0
 11
-0.5
 21
-0.289
 31
0.0
  0
ENDBLK
  5
190
330
18B
100
AcDbEntity
  8
0
100
AcDbBlockEnd
  0
BLOCK
  5
196
330
191
100
AcDbEntity
  8
0
100
AcDbBlockBegin
  2
cw-dimension-symbol1
 70
     0
 10
0.0
 20
0.0
 30
0.0
  3
cw-dimension-symbol1
  1

  0
LINE
  5
192
330
191
100
AcDbEntity
  8
0
  6
Continuous
 62
     0
370
    -2
390
5F
100
AcDbLine
 10
0.0
 20
0.0
 30
0.0
 11
-1.0
 21
0.25
 31
0.0
  0
LINE
  5
193
330
191
100
AcDbEntity
  8
0
  6
Continuous
 62
     0
370
    -2
390
5F
100
AcDbLine
 10
0.0
 20
0.0
 30
0.0
 11
-1.0
 21
-0.25
 31
0.0
  0
LINE
  5
194
330
191
100
AcDbEntity
  8
0
  6
Continuous
 62
     0
370
    -2
390
5F
100
AcDbLine
 10
-1.0
 20
0.25
 30
0.0
 11
-1.0
 21
-0.25
 31
0.0
  0
LINE
  5
195
330
191
100
AcDbEntity
  8
0
  6
Continuous
 62
     0
370
    -2
390
5F
100
AcDbLine
 10
0.0
 20
0.0
 30
0.0
 11
-1.0
 21
0.0
 31
0.0
  0
ENDBLK
  5
197
330
191
100
AcDbEntity
  8
0
100
AcDbBlockEnd
  0
BLOCK
  5
19B
330
198
100
AcDbEntity
  8
0
100
AcDbBlockBegin
  2
cw-dimension-symbol2
 70
     0
 10
0.0
 20
0.0
 30
0.0
  3
cw-dimension-symbol2
  1

  0
LINE
  5
199
330
198
100
AcDbEntity
  8
0
  6
Continuous
 62
     0
370
    -2
390
5F
100
AcDbLine
 10
-1.0
 20
0.0
 30
0.0
 11
1.0
 21
0.0
 31
0.0
  0
LINE
  5
19A
330
198
100
AcDbEntity
  8
0
  6
Continuous
 62
     0
370
    -2
390
5F
100
AcDbLine
 10
-0.5
 20
-0.5
 30
0.0
 11
0.5
 21
0.5
 31
0.0
  0
ENDBLK
  5
19C
330
198
100
AcDbEntity
  8
0
100
AcDbBlockEnd
  0
BLOCK
  5
1A0
330
19D
100
AcDbEntity
  8
0
100
AcDbBlockBegin
  2
cw-dimension-symbol3
 70
     0
 10
0.0
 20
0.0
 30
0.0
  3
cw-dimension-symbol3
  1

  0
LINE
  5
19E
330
19D
100
AcDbEntity
  8
0
  6
Continuous
 62
     0
370
    -2
390
5F
100
AcDbLine
 10
-1.0
 20
0.0
 30
0.0
 11
1.0
 21
0.0
 31
0.0
  0
CIRCLE
  5
19F
330
19D
100
AcDbEntity
  8
0
  6
Continuous
 62
     0
370
    -2
390
5F
100
AcDbCircle
 10
0.0
 20
0.0
 30
0.0
 40
0.25
  0
ENDBLK
  5
1A1
330
19D
100
AcDbEntity
  8
0
100
AcDbBlockEnd
  0
BLOCK
  5
1A7
330
1A2
100
AcDbEntity
  8
0
100
AcDbBlockBegin
  2
cw-dimension-symbol5
 70
     0
 10
0.0
 20
0.0
 30
0.0
  3
cw-dimension-symbol5
  1

  0
HATCH
  5
1A3
330
1A2
100
AcDbEntity
  8
0
  6
Continuous
 62
     0
370
    -2
390
5F
100
AcDbHatch
 10
0.0
 20
0.0
 30
0.0
210
0.0
220
0.0
230
1.0
  2
SOLID
 70
     1
 71
     0
 91
        1
 92
        3
 72
     0
 73
     1
 93
        3
 10
0.0
 20
0.0
 10
-1.0
 20
0.25
 10
-1.0
 20
-0.25
 97
        0
 75
     0
 76
     1
 98
        0
  0
LINE
  5
1A4
330
1A2
100
AcDbEntity
  8
0
  6
Continuous
 62
     0
370
    -2
390
5F
100
AcDbLine
 10
0.0
 20
0.0
 30
0.0
 11
-1.0
 21
0.25
 31
0.0
  0
LINE
  5
1A5
330
1A2
100
AcDbEntity
  8
0
  6
Continuous
 62
     0
370
    -2
390
5F
100
AcDbLine
 10
-1.0
 20
0.25
 30
0.0
 11
-1.0
 21
-0.25
 31
0.0
  0
LINE
  5
1A6
330
1A2
100
AcDbEntity
  8
0
  6
Continuous
 62
     0
370
    -2
390
5F
100
AcDbLine
 10
-1.0
 20
-0.25
 30
0.0
 11
0.0
 21
0.0
 31
0.0
  0
ENDBLK
  5
1A8
330
1A2
100
AcDbEntity
  8
0
100
AcDbBlockEnd
  0
BLOCK
  5
1AD
330
1A9
100
AcDbEntity
  8
0
100
AcDbBlockBegin
  2
cw-dimension-symbol6
 70
     0
 10
0.0
 20
0.0
 30
0.0
  3
cw-dimension-symbol6
  1

  0
LINE
  5
1AA
330
1A9
100
AcDbEntity
  8
0
  6
Continuous
 62
     0
370
    -2
390
5F
100
AcDbLine
 10
0.0
 20
0.0
 30
0.0
 11
-1.0
 21
0.25
 31
0.0
  0
LINE
  5
1AB
330
1A9
100
AcDbEntity
  8
0
  6
Continuous
 62
     0
370
    -2
390
5F
100
AcDbLine
 10
0.0
 20
0.0
 30
0.0
 11
-1.0
 21
-0.25
 31
0.0
  0
LINE
  5
1AC
330
1A9
100
AcDbEntity
  8
0
  6
Continuous
 62
     0
370
    -2
390
5F
100
AcDbLine
 10
0.0
 20
0.0
 30
0.0
 11
-1.0
 21
0.0
 31
0.0
  0
ENDBLK
  5
1AE
330
1A9
100
AcDbEntity
  8
0
100
AcDbBlockEnd
  0
BLOCK
  5
1B3
330
1AF
100
AcDbEntity
  8
0
100
AcDbBlockBegin
  2
cw-dimension-symbol11
 70
     0
 10
0.0
 20
0.0
 30
0.0
  3
cw-dimension-symbol11
  1

  0
LINE
  5
1B0
330
1AF
100
AcDbEntity
  8
0
  6
Continuous
 62
     0
370
    -2
390
5F
100
AcDbLine
 10
-1.0
 20
1.0
 30
0.0
 11
1.0
 21
1.0
 31
0.0
  0
LINE
  5
1B1
330
1AF
100
AcDbEntity
  8
0
  6
Continuous
 62
     0
370
    -2
390
5F
100
AcDbLine
 10
0.0
 20
0.0
 30
0.0
 11
-1.0
 21
1.0
 31
0.0
  0
LINE
  5
1B2
330
1AF
100
AcDbEntity
  8
0
  6
Continuous
 62
     0
370
    -2
390
5F
100
AcDbLine
 10
0.0
 20
0.0
 30
0.0
 11
1.0
 21
1.0
 31
0.0
  0
ENDBLK
  5
1B4
330
1AF
100
AcDbEntity
  8
0
100
AcDbBlockEnd
  0
BLOCK
  5
1B9
330
1B5
100
AcDbEntity
  8
0
100
AcDbBlockBegin
  2
cw-dimension-symbol13
 70
     0
 10
0.0
 20
0.0
 30
0.0
  3
cw-dimension-symbol13
  1

  0
LINE
  5
1B6
330
1B5
100
AcDbEntity
  8
0
  6
Continuous
 62
     0
370
    -2
390
5F
100
AcDbLine
 10
-1.0
 20
-1.0
 30
0.0
 11
1.0
 21
-1.0
 31
0.0
  0
LINE
  5
1B7
330
1B5
100
AcDbEntity
  8
0
  6
Continuous
 62
     0
370
    -2
390
5F
100
AcDbLine
 10
0.0
 20
0.0
 30
0.0
 11
-1.0
 21
-1.0
 31
0.0
  0
LINE
  5
1B8
330
1B5
100
AcDbEntity
  8
0
  6
Continuous
 62
     0
370
    -2
390
5F
100
AcDbLine
 10
0.0
 20
0.0
 30
0.0
 11
1.0
 21
-1.0
 31
0.0
  0
ENDBLK
  5
1BA
330
1B5
100
AcDbEntity
  8
0
100
AcDbBlockEnd
  0
BLOCK
  5
1C0
330
1BB
100
AcDbEntity
  8
0
100
AcDbBlockBegin
  2
cw-dimension-symbol15
 70
     0
 10
0.0
 20
0.0
 30
0.0
  3
cw-dimension-symbol15
  1

  0
HATCH
  5
1BC
330
1BB
100
AcDbEntity
  8
0
  6
Continuous
 62
     0
370
    -2
390
5F
100
AcDbHatch
 10
0.0
 20
0.0
 30
0.0
210
0.0
220
0.0
230
1.0
  2
SOLID
 70
     1
 71
     0
 91
        1
 92
        3
 72
     0
 73
     1
 93
        3
 10
0.0
 20
0.0
 10
-1.0
 20
1.0
 10
1.0
 20
1.0
 97
        0
 75
     0
 76
     1
 98
        0
  0
LINE
  5
1BD
330
1BB
100
AcDbEntity
  8
0
  6
Continuous
 62
     0
370
    -2
390
5F
100
AcDbLine
 10
0.0
 20
0.0
 30
0.0
 11
-1.0
 21
1.0
 31
0.0
  0
LINE
  5
1BE
330
1BB
100
AcDbEntity
  8
0
  6
Continuous
 62
     0
370
    -2
390
5F
100
AcDbLine
 10
-1.0
 20
1.0
 30
0.0
 11
1.0
 21
1.0
 31
0.0
  0
LINE
  5
1BF
330
1BB
100
AcDbEntity
  8
0
  6
Continuous
 62
     0
370
    -2
390
5F
100
AcDbLine
 10
1.0
 20
1.0
 30
0.0
 11
0.0
 21
0.0
 31
0.0
  0
ENDBLK
  5
1C1
330
1BB
100
AcDbEntity
  8
0
100
AcDbBlockEnd
  0
BLOCK
  5
1C7
330
1C2
100
AcDbEntity
  8
0
100
AcDbBlockBegin
  2
cw-dimension-symbol16
 70
     0
 10
0.0
 20
0.0
 30
0.0
  3
cw-dimension-symbol16
  1

  0
HATCH
  5
1C3
330
1C2
100
AcDbEntity
  8
0
  6
Continuous
 62
     0
370
    -2
390
5F
100
AcDbHatch
 10
0.0
 20
0.0
 30
0.0
210
0.0
220
0.0
230
1.0
  2
SOLID
 70
     1
 71
     0
 91
        1
 92
        3
 72
     0
 73
     1
 93
        3
 10
0.0
 20
0.0
 10
-1.0
 20
-1.0
 10
1.0
 20
-1.0
 97
        0
 75
     0
 76
     1
 98
        0
  0
LINE
  5
1C4
330
1C2
100
AcDbEntity
  8
0
  6
Continuous
 62
     0
370
    -2
390
5F
100
AcDbLine
 10
0.0
 20
0.0
 30
0.0
 11
-1.0
 21
-1.0
 31
0.0
  0
LINE
  5
1C5
330
1C2
100
AcDbEntity
  8
0
  6
Continuous
 62
     0
370
    -2
390
5F
100
AcDbLine
 10
-1.0
 20
-1.0
 30
0.0
 11
1.0
 21
-1.0
 31
0.0
  0
LINE
  5
1C6
330
1C2
100
AcDbEntity
  8
0
  6
Continuous
 62
     0
370
    -2
390
5F
100
AcDbLine
 10
1.0
 20
-1.0
 30
0.0
 11
0.0
 21
0.0
 31
0.0
  0
ENDBLK
  5
1C8
330
1C2
100
AcDbEntity
  8
0
100
AcDbBlockEnd
  0
BLOCK
  5
1CE
330
1C9
100
AcDbEntity
  8
0
100
AcDbBlockBegin
  2
cw-dimension-symbol17
 70
     0
 10
0.0
 20
0.0
 30
0.0
  3
cw-dimension-symbol17
  1

  0
LINE
  5
1CA
330
1C9
100
AcDbEntity
  8
0
  6
Continuous
 62
     0
370
    -2
390
5F
100
AcDbLine
 10
0.0
 20
0.0
 30
0.0
 11
1.0
 21
1.0
 31
0.0
  0
LINE
  5
1CB
330
1C9
100
AcDbEntity
  8
0
  6
Continuous
 62
     0
370
    -2
390
5F
100
AcDbLine
 10
1.0
 20
1.0
 30
0.0
 11
-1.0
 21
1.0
 31
0.0
  0
LINE
  5
1CC
330
1C9
100
AcDbEntity
  8
0
  6
Continuous
 62
     0
370
    -2
390
5F
100
AcDbLine
 10
-1.0
 20
1.0
 30
0.0
 11
0.0
 21
0.0
 31
0.0
  0
HATCH
  5
1CD
330
1C9
100
AcDbEntity
  8
0
  6
Continuous
 62
     0
370
    -2
390
5F
100
AcDbHatch
 10
0.0
 20
0.0
 30
0.0
210
0.0
220
0.0
230
1.0
  2
SOLID
 70
     1
 71
     0
 91
        1
 92
        3
 72
     0
 73
     1
 93
        3
 10
0.0
 20
0.0
 10
-1.0
 20
1.0
 10
0.0
 20
1.0
 97
        0
 75
     0
 76
     1
 98
        0
  0
ENDBLK
  5
1CF
330
1C9
100
AcDbEntity
  8
0
100
AcDbBlockEnd
  0
BLOCK
  5
1D5
330
1D0
100
AcDbEntity
  8
0
100
AcDbBlockBegin
  2
cw-dimension-symbol18
 70
     0
 10
0.0
 20
0.0
 30
0.0
  3
cw-dimension-symbol18
  1

  0
LINE
  5
1D1
330
1D0
100
AcDbEntity
  8
0
  6
Continuous
 62
     0
370
    -2
390
5F
100
AcDbLine
 10
0.0
 20
0.0
 30
0.0
 11
1.0
 21
-1.0
 31
0.0
  0
LINE
  5
1D2
330
1D0
100
AcDbEntity
  8
0
  6
Continuous
 62
     0
370
    -2
390
5F
100
AcDbLine
 10
1.0
 20
-1.0
 30
0.0
 11
-1.0
 21
-1.0
 31
0.0
  0
LINE
  5
1D3
330
1D0
100
AcDbEntity
  8
0
  6
Continuous
 62
     0
370
    -2
390
5F
100
AcDbLine
 10
-1.0
 20
-1.0
 30
0.0
 11
0.0
 21
0.0
 31
0.0
  0
HATCH
  5
1D4
330
1D0
100
AcDbEntity
  8
0
  6
Continuous
 62
     0
370
    -2
390
5F
100
AcDbHatch
 10
0.0
 20
0.0
 30
0.0
210
0.0
220
0.0
230
1.0
  2
SOLID
 70
     1
 71
     0
 91
        1
 92
        3
 72
     0
 73
     1
 93
        3
 10
0.0
 20
0.0
 10
-1.0
 20
-1.0
 10
0.0
 20
-1.0
 97
        0
 75
     0
 76
     1
 98
        0
  0
ENDBLK
  5
1D6
330
1D0
100
AcDbEntity
  8
0
100
AcDbBlockEnd
  0
BLOCK
  5
1D8
330
1D7
100
AcDbEntity
  8
0
100
AcDbBlockBegin
  2
cw-dimension-symbol19
 70
     0
 10
0.0
 20
0.0
 30
0.0
  3
cw-dimension-symbol19
  1

  0
ENDBLK
  5
1D9
330
1D7
100
AcDbEntity
  8
0
100
AcDbBlockEnd
  0
BLOCK
  5
1DF
330
1DA
100
AcDbEntity
  8
0
100
AcDbBlockBegin
  2
cw-dimension-symbol20
 70
     0
 10
0.0
 20
0.0
 30
0.0
  3
cw-dimension-symbol20
  1

  0
LINE
  5
1DB
330
1DA
100
AcDbEntity
  8
0
  6
Continuous
 62
     0
370
    -2
390
5F
100
AcDbLine
 10
0.0
 20
0.0
 30
0.0
 11
0.0
 21
2.0
 31
0.0
  0
LINE
  5
1DC
330
1DA
100
AcDbEntity
  8
0
  6
Continuous
 62
     0
370
    -2
390
5F
100
AcDbLine
 10
0.0
 20
0.0
 30
0.0
 11
-1.0
 21
0.33
 31
0.0
  0
LINE
  5
1DD
330
1DA
100
AcDbEntity
  8
0
  6
Continuous
 62
     0
370
    -2
390
5F
100
AcDbLine
 10
0.0
 20
0.0
 30
0.0
 11
1.0
 21
0.33
 31
0.0
  0
LINE
  5
1DE
330
1DA
100
AcDbEntity
  8
0
  6
Continuous
 62
     0
370
    -2
390
5F
100
AcDbLine
 10
0.0
 20
2.0
 30
0.0
 11
4.15
 21
2.0
 31
0.0
  0
ENDBLK
  5
1E0
330
1DA
100
AcDbEntity
  8
0
100
AcDbBlockEnd
  0
BLOCK
  5
1E6
330
1E1
100
AcDbEntity
  8
0
100
AcDbBlockBegin
  2
cw-dimension-symbol21
 70
     0
 10
0.0
 20
0.0
 30
0.0
  3
cw-dimension-symbol21
  1

  0
LINE
  5
1E2
330
1E1
100
AcDbEntity
  8
0
  6
Continuous
 62
     0
370
    -2
390
5F
100
AcDbLine
 10
0.0
 20
0.0
 30
0.0
 11
0.0
 21
-2.0
 31
0.0
  0
LINE
  5
1E3
330
1E1
100
AcDbEntity
  8
0
  6
Continuous
 62
     0
370
    -2
390
5F
100
AcDbLine
 10
0.0
 20
0.0
 30
0.0
 11
-1.0
 21
-0.33
 31
0.0
  0
LINE
  5
1E4
330
1E1
100
AcDbEntity
  8
0
  6
Continuous
 62
     0
370
    -2
390
5F
100
AcDbLine
 10
0.0
 20
0.0
 30
0.0
 11
1.0
 21
-0.33
 31
0.0
  0
LINE
  5
1E5
330
1E1
100
AcDbEntity
  8
0
  6
Continuous
 62
     0
370
    -2
390
5F
100
AcDbLine
 10
0.0
 20
-2.0
 30
0.0
 11
4.15
 21
-2.0
 31
0.0
  0
ENDBLK
  5
1E7
330
1E1
100
AcDbEntity
  8
0
100
AcDbBlockEnd
  0
BLOCK
  5
218
330
1E8
100
AcDbEntity
  8
0
100
AcDbBlockBegin
  2
cw-line-extremity0
 70
     0
 10
0.0
 20
0.0
 30
0.0
  3
cw-line-extremity0
  1

  0
LINE
  5
1E9
330
1E8
100
AcDbEntity
  8
0
  6
Continuous
 62
     0
370
    -2
390
5F
100
AcDbLine
 10
0.0
 20
0.0
 30
0.0
 11
2.0
 21
0.5
 31
0.0
  0
LINE
  5
1EA
330
1E8
100
AcDbEntity
  8
0
  6
Continuous
 62
     0
370
    -2
390
5F
100
AcDbLine
 10
0.0
 20
0.0
 30
0.0
 11
2.0
 21
-0.5
 31
0.0
  0
LINE
  5
1EB
330
1E8
100
AcDbEntity
  8
0
  6
Continuous
 62
     0
370
    -2
390
5F
100
AcDbLine
 10
2.0
 20
0.5
 30
0.0
 11
2.0
 21
-0.5
 31
0.0
  0
ENDBLK
  5
219
330
1E8
100
AcDbEntity
  8
0
100
AcDbBlockEnd
  0
BLOCK
  5
216
330
1EC
100
AcDbEntity
  8
0
100
AcDbBlockBegin
  2
cw-line-extremity2
 70
     0
 10
0.0
 20
0.0
 30
0.0
  3
cw-line-extremity2
  1

  0
HATCH
  5
1ED
330
1EC
100
AcDbEntity
  8
0
  6
Continuous
 62
     0
370
     0
390
5F
100
AcDbHatch
 10
0.0
 20
0.0
 30
0.0
210
0.0
220
0.0
230
1.0
  2
SOLID
 70
     1
 71
     0
 91
        1
 92
        3
 72
     0
 73
     1
 93
        3
 10
0.0
 20
0.0
 10
2.0
 20
0.5
 10
2.0
 20
-0.5
 97
        0
 75
     0
 76
     1
 98
        0
  0
LINE
  5
1EE
330
1EC
100
AcDbEntity
  8
0
  6
Continuous
 62
     0
370
    -2
390
5F
100
AcDbLine
 10
0.0
 20
0.0
 30
0.0
 11
2.0
 21
0.5
 31
0.0
  0
LINE
  5
1EF
330
1EC
100
AcDbEntity
  8
0
  6
Continuous
 62
     0
370
    -2
390
5F
100
AcDbLine
 10
2.0
 20
0.5
 30
0.0
 11
2.0
 21
-0.5
 31
0.0
  0
LINE
  5
1F0
330
1EC
100
AcDbEntity
  8
0
  6
Continuous
 62
     0
370
    -2
390
5F
100
AcDbLine
 10
2.0
 20
-0.5
 30
0.0
 11
0.0
 21
0.0
 31
0.0
  0
ENDBLK
  5
217
330
1EC
100
AcDbEntity
  8
0
100
AcDbBlockEnd
  0
BLOCK
  5
214
330
1F1
100
AcDbEntity
  8
0
100
AcDbBlockBegin
  2
cw-line-extremity3
 70
     0
 10
0.0
 20
0.0
 30
0.0
  3
cw-line-extremity3
  1

  0
HATCH
  5
1F2
330
1F1
100
AcDbEntity
  8
0
  6
Continuous
 62
     0
370
     0
390
5F
100
AcDbHatch
 10
0.0
 20
0.0
 30
0.0
210
0.0
220
0.0
230
1.0
  2
SOLID
 70
     1
 71
     0
 91
        1
 92
        3
 72
     0
 73
     1
 93
        3
 10
0.0
 20
0.0
 10
2.0
 20
0.5
 10
2.0
 20
-0.5
 97
        0
 75
     0
 76
     1
 98
        0
  0
LINE
  5
1F3
330
1F1
100
AcDbEntity
  8
0
  6
Continuous
 62
     0
370
    -2
390
5F
100
AcDbLine
 10
0.0
 20
0.0
 30
0.0
 11
2.0
 21
0.5
 31
0.0
  0
LINE
  5
1F4
330
1F1
100
AcDbEntity
  8
0
  6
Continuous
 62
     0
370
    -2
390
5F
100
AcDbLine
 10
2.0
 20
0.5
 30
0.0
 11
2.0
 21
-0.5
 31
0.0
  0
LINE
  5
1F5
330
1F1
100
AcDbEntity
  8
0
  6
Continuous
 62
     0
370
    -2
390
5F
100
AcDbLine
 10
2.0
 20
-0.5
 30
0.0
 11
0.0
 21
0.0
 31
0.0
  0
ENDBLK
  5
215
330
1F1
100
AcDbEntity
  8
0
100
AcDbBlockEnd
  0
BLOCK
  5
212
330
1F6
100
AcDbEntity
  8
0
100
AcDbBlockBegin
  2
cw-line-extremity301
 70
     0
 10
0.0
 20
0.0
 30
0.0
  3
cw-line-extremity301
  1

  0
LINE
  5
1F7
330
1F6
100
AcDbEntity
  8
0
  6
Continuous
 62
     0
370
    -2
390
5F
100
AcDbLine
 10
0.0
 20
1.33333
 30
0.0
 11
0.0
 21
-1.33333
 31
0.0
  0
ENDBLK
  5
213
330
1F6
100
AcDbEntity
  8
0
100
AcDbBlockEnd
  0
BLOCK
  5
210
330
1F8
100
AcDbEntity
  8
0
100
AcDbBlockBegin
  2
cw-line-extremity4
 70
     0
 10
0.0
 20
0.0
 30
0.0
  3
cw-line-extremity4
  1

  0
HATCH
  5
1F9
330
1F8
100
AcDbEntity
  8
0
  6
Continuous
 62
     0
370
     5
390
5F
100
AcDbHatch
 10
0.0
 20
0.0
 30
0.0
210
0.0
220
0.0
230
1.0
  2
SOLID
 70
     1
 71
     0
 91
        1
 92
        1
 93
        1
 72
     2
 10
0.0
 20
0.0
 40
0.5
 50
0.0
 51
360.0
 73
     1
 97
        0
 75
     0
 76
     1
 98
        0
  0
ENDBLK
  5
211
330
1F8
100
AcDbEntity
  8
0
100
AcDbBlockEnd
  0
BLOCK
  5
20E
330
1FA
100
AcDbEntity
  8
0
100
AcDbBlockBegin
  2
cw-line-extremity5
 70
     0
 10
0.0
 20
0.0
 30
0.0
  3
cw-line-extremity5
  1

  0
LINE
  5
1FB
330
1FA
100
AcDbEntity
  8
0
  6
Continuous
 62
     0
370
    -2
390
5F
100
AcDbLine
 10
0.0
 20
0.0
 30
0.0
 11
-0.5
 21
0.0
 31
0.0
  0
ENDBLK
  5
20F
330
1FA
100
AcDbEntity
  8
0
100
AcDbBlockEnd
  0
BLOCK
  5
20C
330
1FC
100
AcDbEntity
  8
0
100
AcDbBlockBegin
  2
cw-line-extremity6
 70
     0
 10
0.0
 20
0.0
 30
0.0
  3
cw-line-extremity6
  1

  0
LINE
  5
1FD
330
1FC
100
AcDbEntity
  8
0
  6
Continuous
 62
     0
370
    18
390
5F
100
AcDbLine
 10
0.0
 20
0.5
 30
0.0
 11
0.0
 21
-0.5
 31
0.0
  0
ENDBLK
  5
20D
330
1FC
100
AcDbEntity
  8
0
100
AcDbBlockEnd
  0
BLOCK
  5
20A
330
1FE
100
AcDbEntity
  8
0
100
AcDbBlockBegin
  2
cw-line-extremity9
 70
     0
 10
0.0
 20
0.0
 30
0.0
  3
cw-line-extremity9
  1

  0
LINE
  5
1FF
330
1FE
100
AcDbEntity
  8
0
  6
Continuous
 62
     0
370
    18
390
5F
100
AcDbLine
 10
-0.5
 20
-0.5
 30
0.0
 11
0.5
 21
0.5
 31
0.0
  0
ENDBLK
  5
20B
330
1FE
100
AcDbEntity
  8
0
100
AcDbBlockEnd
  0
BLOCK
  5
208
330
200
100
AcDbEntity
  8
0
100
AcDbBlockBegin
  2
cw-line-extremity10
 70
     0
 10
0.0
 20
0.0
 30
0.0
  3
cw-line-extremity10
  1

  0
CIRCLE
  5
201
330
200
100
AcDbEntity
  8
0
  6
Continuous
 62
     0
370
    -2
390
5F
100
AcDbCircle
 10
0.0
 20
0.0
 30
0.0
 40
0.5
  0
ENDBLK
  5
209
330
200
100
AcDbEntity
  8
0
100
AcDbBlockEnd
  0
BLOCK
  5
206
330
202
100
AcDbEntity
  8
0
100
AcDbBlockBegin
  2
cw-line-extremity1
 70
     0
 10
0.0
 20
0.0
 30
0.0
  3
cw-line-extremity1
  1

  0
LINE
  5
203
330
202
100
AcDbEntity
  8
0
  6
Continuous
 62
     0
370
    -2
390
5F
100
AcDbLine
 10
0.0
 20
0.0
 30
0.0
 11
0.0
 21
0.5
 31
0.0
  0
LINE
  5
204
330
202
100
AcDbEntity
  8
0
  6
Continuous
 62
     0
370
    -2
390
5F
100
AcDbLine
 10
0.0
 20
0.5
 30
0.0
 11
0.25
 21
0.75
 31
0.0
  0
LINE
  5
205
330
202
100
AcDbEntity
  8
0
  6
Continuous
 62
     0
370
    -2
390
5F
100
AcDbLine
 10
0.25
 20
0.75
 30
0.0
 11
0.75
 21
0.75
 31
0.0
  0
ENDBLK
  5
207
330
202
100
AcDbEntity
  8
0
100
AcDbBlockEnd
  0
BLOCK
  5
1C
330
1B
100
AcDbEntity
  8
0
100
AcDbBlockBegin
  2
*Paper_Space69
 70
     0
 10
0.0
 20
0.0
 30
0.0
  3
*Paper_Space69
  1

  0
ENDBLK
  5
1D
330
1B
100
AcDbEntity
  8
0
100
AcDbBlockEnd
  0
BLOCK
  5
337
330
336
100
AcDbEntity
  8
0
100
AcDbBlockBegin
  2
*D70
 70
     1
 10
0.0
 20
0.0
 30
0.0
  3
*D70
  1

  0
LINE
  5
339
330
336
100
AcDbEntity
  8
Sc.1_5
  6
Continuous
 62
     0
370
    -2
100
AcDbLine
 10
2641.756926506476
 20
-537.8898348478947
 30
0.0
 11
2641.756926372627
 21
-541.8898348478947
 31
0.0
  0
LINE
  5
33A
330
336
100
AcDbEntity
  8
Sc.1_5
  6
Continuous
 62
     0
370
    -2
100
AcDbLine
 10
2630.356926399365
 20
-537.889834466425
 30
0.0
 11
2630.356926265516
 21
-541.889834466425
 31
0.0
  0
LINE
  5
33B
330
336
100
AcDbEntity
  8
Sc.1_5
  6
Continuous
 62
     0
370
    -2
100
AcDbLine
 10
2640.756926406089
 20
-540.8898348144324
 30
0.0
 11
2631.356926298979
 21
-540.8898344998872
 31
0.0
  0
INSERT
  5
33C
330
336
100
AcDbEntity
  8
Sc.1_5
 62
     0
370
    -2
100
AcDbBlockReference
  2
cw-dimension-symbol2
 10
2641.756926406089
 20
-540.8898348478947
 30
0.0
 50
359.999998082754
  0
INSERT
  5
33D
330
336
100
AcDbEntity
  8
Sc.1_5
 62
     0
370
    -2
100
AcDbBlockReference
  2
cw-dimension-symbol2
 10
2630.356926298979
 20
-540.889834466425
 30
0.0
 50
179.999998082754
  0
MTEXT
  5
33E
330
336
100
AcDbEntity
  8
Sc.1_5
  6
Continuous
 62
     7
370
     9
390
5F
100
AcDbMText
 10
2636.056926596284
 20
-538.7925236028933
 30
0.0
 40
2.1
 41
0.0
 46
0.0
 71
     5
 72
     1
  1
bearing
  7
tahoma-z-x
 11
0.9999999999999996
 21
-3.346225440710331E-8
 31
0.0
 73
     1
 44
1.0
  0
POINT
  5
33F
330
336
100
AcDbEntity
  8
Defpoints
 62
     0
100
AcDbPoint
 10
2641.756926506476
 20
-537.8898348478947
 30
0.0
  0
POINT
  5
340
330
336
100
AcDbEntity
  8
Defpoints
 62
     0
100
AcDbPoint
 10
2630.356926399365
 20
-537.889834466425
 30
0.0
  0
POINT
  5
341
330
336
100
AcDbEntity
  8
Defpoints
 62
     0
100
AcDbPoint
 10
2630.356926298979
 20
-540.889834466425
 30
0.0
  0
ENDBLK
  5
338
330
336
100
AcDbEntity
  8
0
100
AcDbBlockEnd
  0
ENDSEC
  0
SECTION
  2
ENTITIES
  0
LWPOLYLINE
  5
223
330
1F
100
AcDbEntity
  8
LEGEND
  6
Continuous
 62
     5
370
    15
390
5F
100
AcDbPolyline
 90
        5
 70
     0
 43
0.0
 10
2597.817602050204
 20
-635.5686191677087
 10
2655.632956288983
 20
-635.5686191677087
 10
2655.632956288983
 20
-618.306257681179
 10
2597.817602050204
 20
-618.306257681179
 10
2597.817602050204
 20
-635.5686191677087
  0
LWPOLYLINE
  5
224
330
1F
100
AcDbEntity
  8
LEGEND
  6
Continuous
 62
     5
370
    15
390
5F
100
AcDbPolyline
 90
        5
 70
     0
 43
0.0
 10
2655.632956288983
 20
-635.5686191677087
 10
2729.02510783681
 20
-635.5686191677087
 10
2729.02510783681
 20
-618.306257681179
 10
2655.632956288983
 20
-618.306257681179
 10
2655.632956288983
 20
-635.5686191677087
  0
LWPOLYLINE
  5
225
330
1F
100
AcDbEntity
  8
LEGEND
  6
Continuous
 62
     5
370
    15
390
5F
100
AcDbPolyline
 90
        5
 70
     0
 43
0.0
 10
2729.02510783681
 20
-635.5686191677087
 10
2763.549106967057
 20
-635.5686191677087
 10
2763.549106967057
 20
-626.9374384244293
 10
2729.02510783681
 20
-626.9374384244293
 10
2729.02510783681
 20
-635.5686191677087
  0
LWPOLYLINE
  5
226
330
1F
100
AcDbEntity
  8
LEGEND
  6
Continuous
 62
     5
370
    15
390
5F
100
AcDbPolyline
 90
        5
 70
     0
 43
0.0
 10
2729.02510783681
 20
-626.9374384244293
 10
2743.933356513237
 20
-626.9374384244293
 10
2743.933356513237
 20
-618.306257681179
 10
2729.02510783681
 20
-618.306257681179
 10
2729.02510783681
 20
-626.9374384244293
  0
LWPOLYLINE
  5
227
330
1F
100
AcDbEntity
  8
LEGEND
  6
Continuous
 62
     5
370
    15
390
5F
100
AcDbPolyline
 90
        5
 70
     0
 43
0.0
 10
2566.549106967057
 20
-635.5686191677087
 10
2763.549106967057
 20
-635.5686191677087
 10
2763.549106967057
 20
-364.5686191677087
 10
2566.549106967057
 20
-364.5686191677087
 10
2566.549106967057
 20
-635.5686191677087
  0
LWPOLYLINE
  5
228
330
1F
100
AcDbEntity
  8
LEGEND
  6
Continuous
 62
     5
370
    15
390
5F
100
AcDbPolyline
 90
        5
 70
     0
 43
0.0
 10
2743.933356513237
 20
-626.9374384244293
 10
2763.549106967057
 20
-626.9374384244293
 10
2763.549106967057
 20
-618.306257681179
 10
2743.933356513237
 20
-618.306257681179
 10
2743.933356513237
 20
-626.9374384244293
  0
LWPOLYLINE
  5
229
330
1F
100
AcDbEntity
  8
LEGEND
  6
Continuous
 62
     5
370
    15
390
5F
100
AcDbPolyline
 90
        5
 70
     0
 43
0.0
 10
2566.549106967057
 20
-635.5686191677087
 10
2597.817602050204
 20
-635.5686191677087
 10
2597.817602050204
 20
-618.306257681179
 10
2566.549106967057
 20
-618.306257681179
 10
2566.549106967057
 20
-635.5686191677087
  0
3DFACE
  5
22A
330
1F
100
AcDbEntity
  8
Sc.1_5
  6
Continuous
 62
     7
370
    15
390
5F
100
AcDbFace
 10
2627.65692661099
 20
-432.358428956955
 30
-176.5050807568871
 11
2627.65692661099
 21
-432.358428956955
 31
39.80420231819153
 12
2626.75692661099
 22
-432.358428956955
 32
39.80420231819153
 13
2626.75692661099
 23
-432.358428956955
 33
-176.5050807568871
  0
HATCH
  5
22B
330
1F
100
AcDbEntity
  8
Sc.1_5
  6
Continuous
 62
     7
440
 33554687
370
    15
390
5F
100
AcDbHatch
 10
0.0
 20
0.0
 30
0.0
210
0.0
220
0.0
230
1.0
  2
CwHatchPattern_31
 70
     0
 71
     0
 91
        1
 92
        3
 72
     1
 73
     1
 93
       22
 10
2627.754941186788
 20
-432.3632473589762
 42
-0.073914564516558
 10
2628.039521533659
 20
-432.4346485449518
 42
0.0
 10
2628.128188031601
 20
-432.4766549923477
 42
0.0
 10
2628.212318417386
 20
-432.5271481501986
 42
-0.0489950122005906
 10
2628.36381039486
 20
-432.6515451730851
 42
0.0
 10
2628.429721389684
 20
-432.724245337576
 42
0.0
 10
2628.488207417747
 20
-432.8030371505592
 42
-0.0490971925402886
 10
2628.580707022993
 20
-432.9758340342861
 42
0.0
 10
2628.613813152462
 20
-433.0681909683521
 42
0.0
 10
2628.637691758868
 20
-433.1633556166828
 42
-0.0492069666035717
 10
2628.65692661099
 20
-433.358428956955
 42
0.0
 10
2628.652108208969
 20
-433.260414381157
 42
0.07391456451794
 10
2628.580707022993
 20
-432.9758340342861
 42
0.0
 10
2628.538700575597
 20
-432.887167536344
 42
0.0
 10
2628.488207417747
 20
-432.8030371505592
 42
0.0489950121998425
 10
2628.36381039486
 20
-432.6515451730851
 42
0.0
 10
2628.291110230369
 20
-432.5856341782612
 42
0.0
 10
2628.212318417386
 20
-432.5271481501986
 42
0.0490971925417223
 10
2628.039521533659
 20
-432.4346485449518
 42
0.0
 10
2627.947164599593
 20
-432.4015424154827
 42
0.0
 10
2627.851999951262
 20
-432.3776638090778
 42
0.0492069666053746
 10
2627.65692661099
 20
-432.358428956955
 42
0.0
 97
        0
 75
     0
 76
     2
 52
0.0
 41
1.0
 77
     0
 78
     1
 53
45.00000000000297
 43
0.0
 44
0.0
 45
-2.828427124746336
 46
2.828427124746044
 79
     0
 98
        0
1001
ACAD
1010
0.0
1020
0.0
1030
0.0
  0
POLYLINE
  5
22C
330
1F
100
AcDbEntity
  8
Sc.1_5
  6
Continuous
 62
     7
370
    15
390
5F
100
AcDb3dPolyline
 66
     1
 10
0.0
 20
0.0
 30
0.0
 70
     8
  0
VERTEX
  5
22D
330
22C
100
AcDbEntity
  8
Sc.1_5
  6
Continuous
 62
     7
370
    15
100
AcDbVertex
100
AcDb3dPolylineVertex
 10
2627.754941186788
 20
-432.3632473589762
 30
-176.5050807568871
 70
    32
  0
VERTEX
  5
22E
330
22C
100
AcDbEntity
  8
Sc.1_5
  6
Continuous
 62
     7
370
    15
100
AcDbVertex
100
AcDb3dPolylineVertex
 10
2627.899870154008
 20
-432.3884306357595
 30
-176.5050807568871
 70
    32
  0
VERTEX
  5
22F
330
22C
100
AcDbEntity
  8
Sc.1_5
  6
Continuous
 62
     7
370
    15
100
AcDbVertex
100
AcDb3dPolylineVertex
 10
2628.039521533659
 20
-432.4346485449518
 30
-176.5050807568871
 70
    32
  0
VERTEX
  5
230
330
22C
100
AcDbEntity
  8
Sc.1_5
  6
Continuous
 62
     7
370
    15
100
AcDbVertex
100
AcDb3dPolylineVertex
 10
2628.128188031601
 20
-432.4766549923477
 30
-176.5050807568871
 70
    32
  0
VERTEX
  5
231
330
22C
100
AcDbEntity
  8
Sc.1_5
  6
Continuous
 62
     7
370
    15
100
AcDbVertex
100
AcDb3dPolylineVertex
 10
2628.212318417386
 20
-432.5271481501986
 30
-176.5050807568871
 70
    32
  0
VERTEX
  5
232
330
22C
100
AcDbEntity
  8
Sc.1_5
  6
Continuous
 62
     7
370
    15
100
AcDbVertex
100
AcDb3dPolylineVertex
 10
2628.29111182295
 20
-432.5856354859995
 30
-176.5050807568871
 70
    32
  0
VERTEX
  5
233
330
22C
100
AcDbEntity
  8
Sc.1_5
  6
Continuous
 62
     7
370
    15
100
AcDbVertex
100
AcDb3dPolylineVertex
 10
2628.36381039486
 20
-432.6515451730851
 30
-176.5050807568871
 70
    32
  0
VERTEX
  5
234
330
22C
100
AcDbEntity
  8
Sc.1_5
  6
Continuous
 62
     7
370
    15
100
AcDbVertex
100
AcDb3dPolylineVertex
 10
2628.429721389684
 20
-432.724245337576
 30
-176.5050807568871
 70
    32
  0
VERTEX
  5
235
330
22C
100
AcDbEntity
  8
Sc.1_5
  6
Continuous
 62
     7
370
    15
100
AcDbVertex
100
AcDb3dPolylineVertex
 10
2628.488207417747
 20
-432.8030371505592
 30
-176.5050807568871
 70
    32
  0
VERTEX
  5
236
330
22C
100
AcDbEntity
  8
Sc.1_5
  6
Continuous
 62
     7
370
    15
100
AcDbVertex
100
AcDb3dPolylineVertex
 10
2628.538699141305
 20
-432.8871648569583
 30
-176.5050807568871
 70
    32
  0
VERTEX
  5
237
330
22C
100
AcDbEntity
  8
Sc.1_5
  6
Continuous
 62
     7
370
    15
100
AcDbVertex
100
AcDb3dPolylineVertex
 10
2628.580707022993
 20
-432.9758340342861
 30
-176.5050807568871
 70
    32
  0
VERTEX
  5
238
330
22C
100
AcDbEntity
  8
Sc.1_5
  6
Continuous
 62
     7
370
    15
100
AcDbVertex
100
AcDb3dPolylineVertex
 10
2628.613813152462
 20
-433.0681909683521
 30
-176.5050807568871
 70
    32
  0
VERTEX
  5
239
330
22C
100
AcDbEntity
  8
Sc.1_5
  6
Continuous
 62
     7
370
    15
100
AcDbVertex
100
AcDb3dPolylineVertex
 10
2628.637691758868
 20
-433.1633556166828
 30
-176.5050807568871
 70
    32
  0
VERTEX
  5
23A
330
22C
100
AcDbEntity
  8
Sc.1_5
  6
Continuous
 62
     7
370
    15
100
AcDbVertex
100
AcDb3dPolylineVertex
 10
2628.652108668599
 20
-433.2604190424559
 30
-176.5050807568871
 70
    32
  0
VERTEX
  5
23B
330
22C
100
AcDbEntity
  8
Sc.1_5
  6
Continuous
 62
     7
370
    15
100
AcDbVertex
100
AcDb3dPolylineVertex
 10
2628.65692661099
 20
-433.358428956955
 30
-176.5050807568871
 70
    32
  0
VERTEX
  5
23C
330
22C
100
AcDbEntity
  8
Sc.1_5
  6
Continuous
 62
     7
370
    15
100
AcDbVertex
100
AcDb3dPolylineVertex
 10
2628.65692661099
 20
-433.358428956955
 30
39.80420231819153
 70
    32
  0
VERTEX
  5
23D
330
22C
100
AcDbEntity
  8
Sc.1_5
  6
Continuous
 62
     7
370
    15
100
AcDbVertex
100
AcDb3dPolylineVertex
 10
2628.652108208969
 20
-433.260414381157
 30
39.80420231819153
 70
    32
  0
VERTEX
  5
23E
330
22C
100
AcDbEntity
  8
Sc.1_5
  6
Continuous
 62
     7
370
    15
100
AcDbVertex
100
AcDb3dPolylineVertex
 10
2628.626924932186
 20
-433.1154854139377
 30
39.80420231819153
 70
    32
  0
VERTEX
  5
23F
330
22C
100
AcDbEntity
  8
Sc.1_5
  6
Continuous
 62
     7
370
    15
100
AcDbVertex
100
AcDb3dPolylineVertex
 10
2628.580707022993
 20
-432.9758340342861
 30
39.80420231819153
 70
    32
  0
VERTEX
  5
240
330
22C
100
AcDbEntity
  8
Sc.1_5
  6
Continuous
 62
     7
370
    15
100
AcDbVertex
100
AcDb3dPolylineVertex
 10
2628.538700575597
 20
-432.887167536344
 30
39.80420231819153
 70
    32
  0
VERTEX
  5
241
330
22C
100
AcDbEntity
  8
Sc.1_5
  6
Continuous
 62
     7
370
    15
100
AcDbVertex
100
AcDb3dPolylineVertex
 10
2628.488207417747
 20
-432.8030371505592
 30
39.80420231819153
 70
    32
  0
VERTEX
  5
242
330
22C
100
AcDbEntity
  8
Sc.1_5
  6
Continuous
 62
     7
370
    15
100
AcDbVertex
100
AcDb3dPolylineVertex
 10
2628.429720081946
 20
-432.7242437449952
 30
39.80420231819153
 70
    32
  0
VERTEX
  5
243
330
22C
100
AcDbEntity
  8
Sc.1_5
  6
Continuous
 62
     7
370
    15
100
AcDbVertex
100
AcDb3dPolylineVertex
 10
2628.36381039486
 20
-432.6515451730851
 30
39.80420231819153
 70
    32
  0
VERTEX
  5
244
330
22C
100
AcDbEntity
  8
Sc.1_5
  6
Continuous
 62
     7
370
    15
100
AcDbVertex
100
AcDb3dPolylineVertex
 10
2628.291110230369
 20
-432.5856341782612
 30
39.80420231819153
 70
    32
  0
VERTEX
  5
245
330
22C
100
AcDbEntity
  8
Sc.1_5
  6
Continuous
 62
     7
370
    15
100
AcDbVertex
100
AcDb3dPolylineVertex
 10
2628.212318417386
 20
-432.5271481501986
 30
39.80420231819153
 70
    32
  0
VERTEX
  5
246
330
22C
100
AcDbEntity
  8
Sc.1_5
  6
Continuous
 62
     7
370
    15
100
AcDbVertex
100
AcDb3dPolylineVertex
 10
2628.128190710987
 20
-432.47665642664
 30
39.80420231819153
 70
    32
  0
VERTEX
  5
247
330
22C
100
AcDbEntity
  8
Sc.1_5
  6
Continuous
 62
     7
370
    15
100
AcDbVertex
100
AcDb3dPolylineVertex
 10
2628.039521533659
 20
-432.4346485449518
 30
39.80420231819153
 70
    32
  0
VERTEX
  5
248
330
22C
100
AcDbEntity
  8
Sc.1_5
  6
Continuous
 62
     7
370
    15
100
AcDbVertex
100
AcDb3dPolylineVertex
 10
2627.947164599593
 20
-432.4015424154827
 30
39.80420231819153
 70
    32
  0
VERTEX
  5
249
330
22C
100
AcDbEntity
  8
Sc.1_5
  6
Continuous
 62
     7
370
    15
100
AcDbVertex
100
AcDb3dPolylineVertex
 10
2627.851999951262
 20
-432.3776638090778
 30
39.80420231819153
 70
    32
  0
VERTEX
  5
24A
330
22C
100
AcDbEntity
  8
Sc.1_5
  6
Continuous
 62
     7
370
    15
100
AcDbVertex
100
AcDb3dPolylineVertex
 10
2627.754936525489
 20
-432.3632468993463
 30
39.80420231819153
 70
    32
  0
VERTEX
  5
24B
330
22C
100
AcDbEntity
  8
Sc.1_5
  6
Continuous
 62
     7
370
    15
100
AcDbVertex
100
AcDb3dPolylineVertex
 10
2627.65692661099
 20
-432.358428956955
 30
39.80420231819153
 70
    32
  0
VERTEX
  5
24C
330
22C
100
AcDbEntity
  8
Sc.1_5
  6
Continuous
 62
     7
370
    15
100
AcDbVertex
100
AcDb3dPolylineVertex
 10
2627.65692661099
 20
-432.358428956955
 30
-176.5050807568871
 70
    32
  0
VERTEX
  5
24D
330
22C
100
AcDbEntity
  8
Sc.1_5
  6
Continuous
 62
     7
370
    15
100
AcDbVertex
100
AcDb3dPolylineVertex
 10
2627.754941186788
 20
-432.3632473589762
 30
-176.5050807568871
 70
    32
  0
SEQEND
  5
24E
330
22C
100
AcDbEntity
  8
Sc.1_5
  6
Continuous
 62
     7
370
    15
390
5F
  0
3DFACE
  5
24F
330
1F
100
AcDbEntity
  8
Sc.1_5
  6
Continuous
 62
     7
370
    15
390
5F
100
AcDbFace
 10
2628.65692661099
 20
-457.858428956955
 30
-176.5050807568871
 11
2628.65692661099
 21
-457.858428956955
 31
39.80420231819153
 12
2628.65692661099
 22
-433.358428956955
 32
39.80420231819153
 13
2628.65692661099
 23
-433.358428956955
 33
-176.5050807568871
  0
HATCH
  5
250
330
1F
100
AcDbEntity
  8
Sc.1_5
  6
Continuous
 62
     7
440
 33554687
370
    15
390
5F
100
AcDbHatch
 10
0.0
 20
0.0
 30
0.0
210
0.0
220
0.0
230
1.0
  2
CwHatchPattern_31
 70
     0
 71
     0
 91
        1
 92
        3
 72
     1
 73
     1
 93
       22
 10
2628.669454456245
 20
-458.1132668540297
 42
0.073914564516536
 10
2628.855097539782
 20
-458.8531757558944
 42
0.0
 10
2628.964314303011
 20
-459.0837086505437
 42
0.0
 10
2629.095596513424
 20
-459.3024476535838
 42
0.0489950122007733
 10
2629.419028772928
 20
-459.6963267950168
 42
0.0
 10
2629.608049200604
 20
-459.867695381559
 42
0.0
 10
2629.812907914361
 20
-460.0197590545217
 42
0.0490971925389748
 10
2630.262179812051
 20
-460.2602580281635
 42
0.0
 10
2630.502307840623
 20
-460.3463339647831
 42
0.0
 10
2630.749735926282
 20
-460.4084183414359
 42
0.049206966605478
 10
2631.25692661099
 20
-460.458428956955
 42
0.0
 10
2631.002088713915
 20
-460.4459011117001
 42
-0.0739145645171262
 10
2630.262179812051
 20
-460.2602580281635
 42
0.0
 10
2630.031646917401
 20
-460.1510412649339
 42
0.0
 10
2629.812907914361
 20
-460.0197590545217
 42
-0.0489950121982373
 10
2629.419028772928
 20
-459.6963267950168
 42
0.0
 10
2629.247660186386
 20
-459.5073063673406
 42
0.0
 10
2629.095596513424
 20
-459.3024476535838
 42
-0.0490971925400146
 10
2628.855097539782
 20
-458.8531757558944
 42
0.0
 10
2628.769021603162
 20
-458.6130477273227
 42
0.0
 10
2628.706937226509
 20
-458.3656196416629
 42
-0.0492069666053868
 10
2628.65692661099
 20
-457.858428956955
 42
0.0
 97
        0
 75
     0
 76
     2
 52
0.0
 41
1.0
 77
     0
 78
     1
 53
45.00000000000297
 43
0.0
 44
0.0
 45
-2.828427124746336
 46
2.828427124746044
 79
     0
 98
        0
1001
ACAD
1010
0.0
1020
0.0
1030
0.0
  0
POLYLINE
  5
251
330
1F
100
AcDbEntity
  8
Sc.1_5
  6
Continuous
 62
     7
370
    15
390
5F
100
AcDb3dPolyline
 66
     1
 10
0.0
 20
0.0
 30
0.0
 70
     8
  0
VERTEX
  5
252
330
251
100
AcDbEntity
  8
Sc.1_5
  6
Continuous
 62
     7
370
    15
100
AcDbVertex
100
AcDb3dPolylineVertex
 10
2628.669454456245
 20
-458.1132668540297
 30
-176.5050807568871
 70
    32
  0
VERTEX
  5
253
330
251
100
AcDbEntity
  8
Sc.1_5
  6
Continuous
 62
     7
370
    15
100
AcDbVertex
100
AcDb3dPolylineVertex
 10
2628.706933653135
 20
-458.3656017045222
 30
-176.5050807568871
 70
    32
  0
VERTEX
  5
254
330
251
100
AcDbEntity
  8
Sc.1_5
  6
Continuous
 62
     7
370
    15
100
AcDbVertex
100
AcDb3dPolylineVertex
 10
2628.769014781181
 20
-458.6130355350975
 30
-176.5050807568871
 70
    32
  0
VERTEX
  5
255
330
251
100
AcDbEntity
  8
Sc.1_5
  6
Continuous
 62
     7
370
    15
100
AcDbVertex
100
AcDb3dPolylineVertex
 10
2628.855097539782
 20
-458.8531757558944
 30
-176.5050807568871
 70
    32
  0
VERTEX
  5
256
330
251
100
AcDbEntity
  8
Sc.1_5
  6
Continuous
 62
     7
370
    15
100
AcDbVertex
100
AcDb3dPolylineVertex
 10
2628.964314303011
 20
-459.0837086505437
 30
-176.5050807568871
 70
    32
  0
VERTEX
  5
257
330
251
100
AcDbEntity
  8
Sc.1_5
  6
Continuous
 62
     7
370
    15
100
AcDbVertex
100
AcDb3dPolylineVertex
 10
2629.095596513424
 20
-459.3024476535838
 30
-176.5050807568871
 70
    32
  0
VERTEX
  5
258
330
251
100
AcDbEntity
  8
Sc.1_5
  6
Continuous
 62
     7
370
    15
100
AcDbVertex
100
AcDb3dPolylineVertex
 10
2629.247663586506
 20
-459.5073105080505
 30
-176.5050807568871
 70
    32
  0
VERTEX
  5
259
330
251
100
AcDbEntity
  8
Sc.1_5
  6
Continuous
 62
     7
370
    15
100
AcDbVertex
100
AcDb3dPolylineVertex
 10
2629.419028772928
 20
-459.6963267950168
 30
-176.5050807568871
 70
    32
  0
VERTEX
  5
25A
330
251
100
AcDbEntity
  8
Sc.1_5
  6
Continuous
 62
     7
370
    15
100
AcDbVertex
100
AcDb3dPolylineVertex
 10
2629.608049200604
 20
-459.867695381559
 30
-176.5050807568871
 70
    32
  0
VERTEX
  5
25B
330
251
100
AcDbEntity
  8
Sc.1_5
  6
Continuous
 62
     7
370
    15
100
AcDbVertex
100
AcDb3dPolylineVertex
 10
2629.812907914361
 20
-460.0197590545217
 30
-176.5050807568871
 70
    32
  0
VERTEX
  5
25C
330
251
100
AcDbEntity
  8
Sc.1_5
  6
Continuous
 62
     7
370
    15
100
AcDbVertex
100
AcDb3dPolylineVertex
 10
2630.031639950998
 20
-460.1510375357744
 30
-176.5050807568871
 70
    32
  0
VERTEX
  5
25D
330
251
100
AcDbEntity
  8
Sc.1_5
  6
Continuous
 62
     7
370
    15
100
AcDbVertex
100
AcDb3dPolylineVertex
 10
2630.262179812051
 20
-460.2602580281635
 30
-176.5050807568871
 70
    32
  0
VERTEX
  5
25E
330
251
100
AcDbEntity
  8
Sc.1_5
  6
Continuous
 62
     7
370
    15
100
AcDbVertex
100
AcDb3dPolylineVertex
 10
2630.502307840623
 20
-460.3463339647831
 30
-176.5050807568871
 70
    32
  0
VERTEX
  5
25F
330
251
100
AcDbEntity
  8
Sc.1_5
  6
Continuous
 62
     7
370
    15
100
AcDbVertex
100
AcDb3dPolylineVertex
 10
2630.749735926282
 20
-460.4084183414359
 30
-176.5050807568871
 70
    32
  0
VERTEX
  5
260
330
251
100
AcDbEntity
  8
Sc.1_5
  6
Continuous
 62
     7
370
    15
100
AcDbVertex
100
AcDb3dPolylineVertex
 10
2631.002100833292
 20
-460.445902306738
 30
-176.5050807568871
 70
    32
  0
VERTEX
  5
261
330
251
100
AcDbEntity
  8
Sc.1_5
  6
Continuous
 62
     7
370
    15
100
AcDbVertex
100
AcDb3dPolylineVertex
 10
2631.25692661099
 20
-460.458428956955
 30
-176.5050807568871
 70
    32
  0
VERTEX
  5
262
330
251
100
AcDbEntity
  8
Sc.1_5
  6
Continuous
 62
     7
370
    15
100
AcDbVertex
100
AcDb3dPolylineVertex
 10
2631.25692661099
 20
-460.458428956955
 30
39.80420231819153
 70
    32
  0
VERTEX
  5
263
330
251
100
AcDbEntity
  8
Sc.1_5
  6
Continuous
 62
     7
370
    15
100
AcDbVertex
100
AcDb3dPolylineVertex
 10
2631.002088713915
 20
-460.4459011117001
 30
39.80420231819153
 70
    32
  0
VERTEX
  5
264
330
251
100
AcDbEntity
  8
Sc.1_5
  6
Continuous
 62
     7
370
    15
100
AcDbVertex
100
AcDb3dPolylineVertex
 10
2630.749753863423
 20
-460.4084219148099
 30
39.80420231819153
 70
    32
  0
VERTEX
  5
265
330
251
100
AcDbEntity
  8
Sc.1_5
  6
Continuous
 62
     7
370
    15
100
AcDbVertex
100
AcDb3dPolylineVertex
 10
2630.502320032848
 20
-460.3463407867636
 30
39.80420231819153
 70
    32
  0
VERTEX
  5
266
330
251
100
AcDbEntity
  8
Sc.1_5
  6
Continuous
 62
     7
370
    15
100
AcDbVertex
100
AcDb3dPolylineVertex
 10
2630.262179812051
 20
-460.2602580281635
 30
39.80420231819153
 70
    32
  0
VERTEX
  5
267
330
251
100
AcDbEntity
  8
Sc.1_5
  6
Continuous
 62
     7
370
    15
100
AcDbVertex
100
AcDb3dPolylineVertex
 10
2630.031646917401
 20
-460.1510412649339
 30
39.80420231819153
 70
    32
  0
VERTEX
  5
268
330
251
100
AcDbEntity
  8
Sc.1_5
  6
Continuous
 62
     7
370
    15
100
AcDbVertex
100
AcDb3dPolylineVertex
 10
2629.812907914361
 20
-460.0197590545217
 30
39.80420231819153
 70
    32
  0
VERTEX
  5
269
330
251
100
AcDbEntity
  8
Sc.1_5
  6
Continuous
 62
     7
370
    15
100
AcDbVertex
100
AcDb3dPolylineVertex
 10
2629.608045059895
 20
-459.867691981439
 30
39.80420231819153
 70
    32
  0
VERTEX
  5
26A
330
251
100
AcDbEntity
  8
Sc.1_5
  6
Continuous
 62
     7
370
    15
100
AcDbVertex
100
AcDb3dPolylineVertex
 10
2629.419028772928
 20
-459.6963267950168
 30
39.80420231819153
 70
    32
  0
VERTEX
  5
26B
330
251
100
AcDbEntity
  8
Sc.1_5
  6
Continuous
 62
     7
370
    15
100
AcDbVertex
100
AcDb3dPolylineVertex
 10
2629.247660186386
 20
-459.5073063673406
 30
39.80420231819153
 70
    32
  0
VERTEX
  5
26C
330
251
100
AcDbEntity
  8
Sc.1_5
  6
Continuous
 62
     7
370
    15
100
AcDbVertex
100
AcDb3dPolylineVertex
 10
2629.095596513424
 20
-459.3024476535838
 30
39.80420231819153
 70
    32
  0
VERTEX
  5
26D
330
251
100
AcDbEntity
  8
Sc.1_5
  6
Continuous
 62
     7
370
    15
100
AcDbVertex
100
AcDb3dPolylineVertex
 10
2628.96431803217
 20
-459.0837156169464
 30
39.80420231819153
 70
    32
  0
VERTEX
  5
26E
330
251
100
AcDbEntity
  8
Sc.1_5
  6
Continuous
 62
     7
370
    15
100
AcDbVertex
100
AcDb3dPolylineVertex
 10
2628.855097539782
 20
-458.8531757558944
 30
39.80420231819153
 70
    32
  0
VERTEX
  5
26F
330
251
100
AcDbEntity
  8
Sc.1_5
  6
Continuous
 62
     7
370
    15
100
AcDbVertex
100
AcDb3dPolylineVertex
 10
2628.769021603162
 20
-458.6130477273227
 30
39.80420231819153
 70
    32
  0
VERTEX
  5
270
330
251
100
AcDbEntity
  8
Sc.1_5
  6
Continuous
 62
     7
370
    15
100
AcDbVertex
100
AcDb3dPolylineVertex
 10
2628.706937226509
 20
-458.3656196416629
 30
39.80420231819153
 70
    32
  0
VERTEX
  5
271
330
251
100
AcDbEntity
  8
Sc.1_5
  6
Continuous
 62
     7
370
    15
100
AcDbVertex
100
AcDb3dPolylineVertex
 10
2628.669453261207
 20
-458.1132547346528
 30
39.80420231819153
 70
    32
  0
VERTEX
  5
272
330
251
100
AcDbEntity
  8
Sc.1_5
  6
Continuous
 62
     7
370
    15
100
AcDbVertex
100
AcDb3dPolylineVertex
 10
2628.65692661099
 20
-457.858428956955
 30
39.80420231819153
 70
    32
  0
VERTEX
  5
273
330
251
100
AcDbEntity
  8
Sc.1_5
  6
Continuous
 62
     7
370
    15
100
AcDbVertex
100
AcDb3dPolylineVertex
 10
2628.65692661099
 20
-457.858428956955
 30
-176.5050807568871
 70
    32
  0
VERTEX
  5
274
330
251
100
AcDbEntity
  8
Sc.1_5
  6
Continuous
 62
     7
370
    15
100
AcDbVertex
100
AcDb3dPolylineVertex
 10
2628.669454456245
 20
-458.1132668540297
 30
-176.5050807568871
 70
    32
  0
SEQEND
  5
275
330
251
100
AcDbEntity
  8
Sc.1_5
  6
Continuous
 62
     7
370
    15
390
5F
  0
3DFACE
  5
276
330
1F
100
AcDbEntity
  8
Sc.1_5
  6
Continuous
 62
     7
370
    15
390
5F
100
AcDbFace
 10
2655.75692661099
 20
-460.458428956955
 30
-176.5050807568871
 11
2655.75692661099
 21
-460.458428956955
 31
39.80420231819153
 12
2631.25692661099
 22
-460.458428956955
 32
39.80420231819153
 13
2631.25692661099
 23
-460.458428956955
 33
-176.5050807568871
  0
HATCH
  5
277
330
1F
100
AcDbEntity
  8
Sc.1_5
  6
Continuous
 62
     7
440
 33554687
370
    15
390
5F
100
AcDbHatch
 10
0.0
 20
0.0
 30
0.0
210
0.0
220
0.0
230
1.0
  2
CwHatchPattern_31
 70
     0
 71
     0
 91
        1
 92
        3
 72
     1
 73
     1
 93
       22
 10
2655.854941186788
 20
-460.4632473589762
 42
-0.0739145645154278
 10
2656.139521533659
 20
-460.5346485449518
 42
0.0
 10
2656.228188031601
 20
-460.5766549923478
 42
0.0
 10
2656.312318417386
 20
-460.6271481501985
 42
-0.0489950122000455
 10
2656.46381039486
 20
-460.7515451730851
 42
0.0
 10
2656.529721389684
 20
-460.8242453375759
 42
0.0
 10
2656.588207417746
 20
-460.9030371505593
 42
-0.0490971925404799
 10
2656.680707022993
 20
-461.075834034286
 42
0.0
 10
2656.713813152463
 20
-461.1681909683521
 42
0.0
 10
2656.737691758867
 20
-461.2633556166828
 42
-0.0492069666036032
 10
2656.75692661099
 20
-461.458428956955
 42
0.0
 10
2656.752108208969
 20
-461.360414381157
 42
0.0739145645147587
 10
2656.680707022993
 20
-461.075834034286
 42
0.0
 10
2656.638700575597
 20
-460.987167536344
 42
0.0
 10
2656.588207417746
 20
-460.9030371505593
 42
0.0489950122007119
 10
2656.46381039486
 20
-460.7515451730851
 42
0.0
 10
2656.391110230369
 20
-460.6856341782612
 42
0.0
 10
2656.312318417386
 20
-460.6271481501985
 42
0.0490971925363263
 10
2656.139521533659
 20
-460.5346485449518
 42
0.0
 10
2656.047164599593
 20
-460.5015424154826
 42
0.0
 10
2655.951999951262
 20
-460.4776638090778
 42
0.0492069666043436
 10
2655.75692661099
 20
-460.458428956955
 42
0.0
 97
        0
 75
     0
 76
     2
 52
0.0
 41
1.0
 77
     0
 78
     1
 53
45.00000000000297
 43
0.0
 44
0.0
 45
-2.828427124746336
 46
2.828427124746044
 79
     0
 98
        0
1001
ACAD
1010
0.0
1020
0.0
1030
0.0
  0
POLYLINE
  5
278
330
1F
100
AcDbEntity
  8
Sc.1_5
  6
Continuous
 62
     7
370
    15
390
5F
100
AcDb3dPolyline
 66
     1
 10
0.0
 20
0.0
 30
0.0
 70
     8
  0
VERTEX
  5
279
330
278
100
AcDbEntity
  8
Sc.1_5
  6
Continuous
 62
     7
370
    15
100
AcDbVertex
100
AcDb3dPolylineVertex
 10
2655.854941186788
 20
-460.4632473589762
 30
-176.5050807568871
 70
    32
  0
VERTEX
  5
27A
330
278
100
AcDbEntity
  8
Sc.1_5
  6
Continuous
 62
     7
370
    15
100
AcDbVertex
100
AcDb3dPolylineVertex
 10
2655.999870154008
 20
-460.4884306357595
 30
-176.5050807568871
 70
    32
  0
VERTEX
  5
27B
330
278
100
AcDbEntity
  8
Sc.1_5
  6
Continuous
 62
     7
370
    15
100
AcDbVertex
100
AcDb3dPolylineVertex
 10
2656.139521533659
 20
-460.5346485449518
 30
-176.5050807568871
 70
    32
  0
VERTEX
  5
27C
330
278
100
AcDbEntity
  8
Sc.1_5
  6
Continuous
 62
     7
370
    15
100
AcDbVertex
100
AcDb3dPolylineVertex
 10
2656.228188031601
 20
-460.5766549923478
 30
-176.5050807568871
 70
    32
  0
VERTEX
  5
27D
330
278
100
AcDbEntity
  8
Sc.1_5
  6
Continuous
 62
     7
370
    15
100
AcDbVertex
100
AcDb3dPolylineVertex
 10
2656.312318417386
 20
-460.6271481501985
 30
-176.5050807568871
 70
    32
  0
VERTEX
  5
27E
330
278
100
AcDbEntity
  8
Sc.1_5
  6
Continuous
 62
     7
370
    15
100
AcDbVertex
100
AcDb3dPolylineVertex
 10
2656.39111182295
 20
-460.6856354859996
 30
-176.5050807568871
 70
    32
  0
VERTEX
  5
27F
330
278
100
AcDbEntity
  8
Sc.1_5
  6
Continuous
 62
     7
370
    15
100
AcDbVertex
100
AcDb3dPolylineVertex
 10
2656.46381039486
 20
-460.7515451730851
 30
-176.5050807568871
 70
    32
  0
VERTEX
  5
280
330
278
100
AcDbEntity
  8
Sc.1_5
  6
Continuous
 62
     7
370
    15
100
AcDbVertex
100
AcDb3dPolylineVertex
 10
2656.529721389684
 20
-460.8242453375759
 30
-176.5050807568871
 70
    32
  0
VERTEX
  5
281
330
278
100
AcDbEntity
  8
Sc.1_5
  6
Continuous
 62
     7
370
    15
100
AcDbVertex
100
AcDb3dPolylineVertex
 10
2656.588207417746
 20
-460.9030371505593
 30
-176.5050807568871
 70
    32
  0
VERTEX
  5
282
330
278
100
AcDbEntity
  8
Sc.1_5
  6
Continuous
 62
     7
370
    15
100
AcDbVertex
100
AcDb3dPolylineVertex
 10
2656.638699141305
 20
-460.9871648569583
 30
-176.5050807568871
 70
    32
  0
VERTEX
  5
283
330
278
100
AcDbEntity
  8
Sc.1_5
  6
Continuous
 62
     7
370
    15
100
AcDbVertex
100
AcDb3dPolylineVertex
 10
2656.680707022993
 20
-461.075834034286
 30
-176.5050807568871
 70
    32
  0
VERTEX
  5
284
330
278
100
AcDbEntity
  8
Sc.1_5
  6
Continuous
 62
     7
370
    15
100
AcDbVertex
100
AcDb3dPolylineVertex
 10
2656.713813152463
 20
-461.1681909683521
 30
-176.5050807568871
 70
    32
  0
VERTEX
  5
285
330
278
100
AcDbEntity
  8
Sc.1_5
  6
Continuous
 62
     7
370
    15
100
AcDbVertex
100
AcDb3dPolylineVertex
 10
2656.737691758867
 20
-461.2633556166828
 30
-176.5050807568871
 70
    32
  0
VERTEX
  5
286
330
278
100
AcDbEntity
  8
Sc.1_5
  6
Continuous
 62
     7
370
    15
100
AcDbVertex
100
AcDb3dPolylineVertex
 10
2656.752108668599
 20
-461.3604190424559
 30
-176.5050807568871
 70
    32
  0
VERTEX
  5
287
330
278
100
AcDbEntity
  8
Sc.1_5
  6
Continuous
 62
     7
370
    15
100
AcDbVertex
100
AcDb3dPolylineVertex
 10
2656.75692661099
 20
-461.458428956955
 30
-176.5050807568871
 70
    32
  0
VERTEX
  5
288
330
278
100
AcDbEntity
  8
Sc.1_5
  6
Continuous
 62
     7
370
    15
100
AcDbVertex
100
AcDb3dPolylineVertex
 10
2656.75692661099
 20
-461.458428956955
 30
39.80420231819153
 70
    32
  0
VERTEX
  5
289
330
278
100
AcDbEntity
  8
Sc.1_5
  6
Continuous
 62
     7
370
    15
100
AcDbVertex
100
AcDb3dPolylineVertex
 10
2656.752108208969
 20
-461.360414381157
 30
39.80420231819153
 70
    32
  0
VERTEX
  5
28A
330
278
100
AcDbEntity
  8
Sc.1_5
  6
Continuous
 62
     7
370
    15
100
AcDbVertex
100
AcDb3dPolylineVertex
 10
2656.726924932186
 20
-461.2154854139378
 30
39.80420231819153
 70
    32
  0
VERTEX
  5
28B
330
278
100
AcDbEntity
  8
Sc.1_5
  6
Continuous
 62
     7
370
    15
100
AcDbVertex
100
AcDb3dPolylineVertex
 10
2656.680707022993
 20
-461.075834034286
 30
39.80420231819153
 70
    32
  0
VERTEX
  5
28C
330
278
100
AcDbEntity
  8
Sc.1_5
  6
Continuous
 62
     7
370
    15
100
AcDbVertex
100
AcDb3dPolylineVertex
 10
2656.638700575597
 20
-460.987167536344
 30
39.80420231819153
 70
    32
  0
VERTEX
  5
28D
330
278
100
AcDbEntity
  8
Sc.1_5
  6
Continuous
 62
     7
370
    15
100
AcDbVertex
100
AcDb3dPolylineVertex
 10
2656.588207417746
 20
-460.9030371505593
 30
39.80420231819153
 70
    32
  0
VERTEX
  5
28E
330
278
100
AcDbEntity
  8
Sc.1_5
  6
Continuous
 62
     7
370
    15
100
AcDbVertex
100
AcDb3dPolylineVertex
 10
2656.529720081945
 20
-460.8242437449952
 30
39.80420231819153
 70
    32
  0
VERTEX
  5
28F
330
278
100
AcDbEntity
  8
Sc.1_5
  6
Continuous
 62
     7
370
    15
100
AcDbVertex
100
AcDb3dPolylineVertex
 10
2656.46381039486
 20
-460.7515451730851
 30
39.80420231819153
 70
    32
  0
VERTEX
  5
290
330
278
100
AcDbEntity
  8
Sc.1_5
  6
Continuous
 62
     7
370
    15
100
AcDbVertex
100
AcDb3dPolylineVertex
 10
2656.391110230369
 20
-460.6856341782612
 30
39.80420231819153
 70
    32
  0
VERTEX
  5
291
330
278
100
AcDbEntity
  8
Sc.1_5
  6
Continuous
 62
     7
370
    15
100
AcDbVertex
100
AcDb3dPolylineVertex
 10
2656.312318417386
 20
-460.6271481501985
 30
39.80420231819153
 70
    32
  0
VERTEX
  5
292
330
278
100
AcDbEntity
  8
Sc.1_5
  6
Continuous
 62
     7
370
    15
100
AcDbVertex
100
AcDb3dPolylineVertex
 10
2656.228190710986
 20
-460.5766564266399
 30
39.80420231819153
 70
    32
  0
VERTEX
  5
293
330
278
100
AcDbEntity
  8
Sc.1_5
  6
Continuous
 62
     7
370
    15
100
AcDbVertex
100
AcDb3dPolylineVertex
 10
2656.139521533659
 20
-460.5346485449518
 30
39.80420231819153
 70
    32
  0
VERTEX
  5
294
330
278
100
AcDbEntity
  8
Sc.1_5
  6
Continuous
 62
     7
370
    15
100
AcDbVertex
100
AcDb3dPolylineVertex
 10
2656.047164599593
 20
-460.5015424154826
 30
39.80420231819153
 70
    32
  0
VERTEX
  5
295
330
278
100
AcDbEntity
  8
Sc.1_5
  6
Continuous
 62
     7
370
    15
100
AcDbVertex
100
AcDb3dPolylineVertex
 10
2655.951999951262
 20
-460.4776638090778
 30
39.80420231819153
 70
    32
  0
VERTEX
  5
296
330
278
100
AcDbEntity
  8
Sc.1_5
  6
Continuous
 62
     7
370
    15
100
AcDbVertex
100
AcDb3dPolylineVertex
 10
2655.854936525489
 20
-460.4632468993462
 30
39.80420231819153
 70
    32
  0
VERTEX
  5
297
330
278
100
AcDbEntity
  8
Sc.1_5
  6
Continuous
 62
     7
370
    15
100
AcDbVertex
100
AcDb3dPolylineVertex
 10
2655.75692661099
 20
-460.458428956955
 30
39.80420231819153
 70
    32
  0
VERTEX
  5
298
330
278
100
AcDbEntity
  8
Sc.1_5
  6
Continuous
 62
     7
370
    15
100
AcDbVertex
100
AcDb3dPolylineVertex
 10
2655.75692661099
 20
-460.458428956955
 30
-176.5050807568871
 70
    32
  0
VERTEX
  5
299
330
278
100
AcDbEntity
  8
Sc.1_5
  6
Continuous
 62
     7
370
    15
100
AcDbVertex
100
AcDb3dPolylineVertex
 10
2655.854941186788
 20
-460.4632473589762
 30
-176.5050807568871
 70
    32
  0
SEQEND
  5
29A
330
278
100
AcDbEntity
  8
Sc.1_5
  6
Continuous
 62
     7
370
    15
390
5F
  0
3DFACE
  5
29B
330
1F
100
AcDbEntity
  8
Sc.1_5
  6
Continuous
 62
     7
370
    15
390
5F
100
AcDbFace
 10
2656.75692661099
 20
-462.358428956955
 30
-176.5050807568871
 11
2656.75692661099
 21
-462.358428956955
 31
39.80420231819153
 12
2656.75692661099
 22
-461.458428956955
 32
39.80420231819153
 13
2656.75692661099
 23
-461.458428956955
 33
-176.5050807568871
  0
3DFACE
  5
29C
330
1F
100
AcDbEntity
  8
Sc.1_5
  6
Continuous
 62
     7
370
    15
390
5F
100
AcDbFace
 10
2626.75692661099
 20
-462.358428956955
 30
-176.5050807568871
 11
2626.75692661099
 21
-462.358428956955
 31
39.80420231819153
 12
2656.75692661099
 22
-462.358428956955
 32
39.80420231819153
 13
2656.75692661099
 23
-462.358428956955
 33
-176.5050807568871
  0
3DFACE
  5
29D
330
1F
100
AcDbEntity
  8
Sc.1_5
  6
Continuous
 62
     7
370
    15
390
5F
100
AcDbFace
 10
2626.75692661099
 20
-432.358428956955
 30
-176.5050807568871
 11
2626.75692661099
 21
-432.358428956955
 31
39.80420231819153
 12
2626.75692661099
 22
-462.358428956955
 32
39.80420231819153
 13
2626.75692661099
 23
-462.358428956955
 33
-176.5050807568871
  0
HATCH
  5
29E
330
1F
100
AcDbEntity
  8
Sc.1_5
  6
Continuous
 62
     7
440
 33554687
370
    15
390
5F
100
AcDbHatch
 10
0.0
 20
0.0
 30
0.0
210
0.0
220
0.0
230
1.0
  2
CwHatchPattern_31
 70
     0
 71
     0
 91
        1
 92
        3
 72
     1
 73
     1
 93
       39
 10
2626.75692661099
 20
-432.358428956955
 42
0.0
 10
2626.75692661099
 20
-462.358428956955
 42
0.0
 10
2656.75692661099
 20
-462.358428956955
 42
0.0
 10
2656.75692661099
 20
-461.458428956955
 42
0.0
 10
2656.752108208969
 20
-461.360414381157
 42
0.0739145645147587
 10
2656.680707022993
 20
-461.075834034286
 42
0.0
 10
2656.638700575597
 20
-460.987167536344
 42
0.0
 10
2656.588207417746
 20
-460.9030371505593
 42
0.0489950122007119
 10
2656.46381039486
 20
-460.7515451730851
 42
0.0
 10
2656.391110230369
 20
-460.6856341782612
 42
0.0
 10
2656.312318417386
 20
-460.6271481501985
 42
0.0490971925363263
 10
2656.139521533659
 20
-460.5346485449518
 42
0.0
 10
2656.047164599593
 20
-460.5015424154826
 42
0.0
 10
2655.951999951262
 20
-460.4776638090778
 42
0.0492069666043436
 10
2655.75692661099
 20
-460.458428956955
 42
0.0
 10
2631.25692661099
 20
-460.458428956955
 42
0.0
 10
2631.002088713915
 20
-460.4459011117001
 42
-0.0739145645171262
 10
2630.262179812051
 20
-460.2602580281635
 42
0.0
 10
2630.031646917401
 20
-460.1510412649339
 42
0.0
 10
2629.812907914361
 20
-460.0197590545217
 42
-0.0489950121982373
 10
2629.419028772928
 20
-459.6963267950168
 42
0.0
 10
2629.247660186386
 20
-459.5073063673406
 42
0.0
 10
2629.095596513424
 20
-459.3024476535838
 42
-0.0490971925400146
 10
2628.855097539782
 20
-458.8531757558944
 42
0.0
 10
2628.769021603162
 20
-458.6130477273227
 42
0.0
 10
2628.706937226509
 20
-458.3656196416629
 42
-0.0492069666053868
 10
2628.65692661099
 20
-457.858428956955
 42
0.0
 10
2628.65692661099
 20
-433.358428956955
 42
0.0
 10
2628.652108208969
 20
-433.260414381157
 42
0.07391456451794
 10
2628.580707022993
 20
-432.9758340342861
 42
0.0
 10
2628.538700575597
 20
-432.887167536344
 42
0.0
 10
2628.488207417747
 20
-432.8030371505592
 42
0.0489950121998425
 10
2628.36381039486
 20
-432.6515451730851
 42
0.0
 10
2628.291110230369
 20
-432.5856341782612
 42
0.0
 10
2628.212318417386
 20
-432.5271481501986
 42
0.0490971925417223
 10
2628.039521533659
 20
-432.4346485449518
 42
0.0
 10
2627.947164599593
 20
-432.4015424154827
 42
0.0
 10
2627.851999951262
 20
-432.3776638090778
 42
0.0492069666053746
 10
2627.65692661099
 20
-432.358428956955
 42
0.0
 97
        0
 75
     0
 76
     2
 52
0.0
 41
1.0
 77
     0
 78
     1
 53
45.00000000000297
 43
0.0
 44
0.0
 45
-2.828427124746336
 46
2.828427124746044
 79
     0
 98
        0
1001
ACAD
1010
0.0
1020
0.0
1030
0.0
  0
LWPOLYLINE
  5
29F
330
1F
100
AcDbEntity
  8
Sc.1_5
  6
Continuous
 62
     7
370
    15
390
5F
100
AcDbPolyline
 90
       40
 70
     0
 43
0.0
 38
-176.5050807568871
 10
2626.75692661099
 20
-432.358428956955
 10
2626.75692661099
 20
-462.358428956955
 10
2656.75692661099
 20
-462.358428956955
 10
2656.75692661099
 20
-461.458428956955
 10
2656.752108208969
 20
-461.360414381157
 42
0.0739145645168037
 10
2656.680707022993
 20
-461.075834034286
 10
2656.638700575597
 20
-460.987167536344
 10
2656.588207417746
 20
-460.9030371505593
 42
0.0489950122001267
 10
2656.46381039486
 20
-460.7515451730851
 10
2656.391110230369
 20
-460.6856341782612
 10
2656.312318417386
 20
-460.6271481501985
 42
0.0490971925391923
 10
2656.139521533659
 20
-460.5346485449518
 10
2656.047164599593
 20
-460.5015424154826
 10
2655.951999951262
 20
-460.4776638090778
 42
0.0492069666052937
 10
2655.75692661099
 20
-460.458428956955
 10
2631.25692661099
 20
-460.458428956955
 10
2631.002088713915
 20
-460.4459011117001
 42
-0.0739145645171334
 10
2630.262179812051
 20
-460.2602580281635
 10
2630.031646917401
 20
-460.1510412649339
 10
2629.812907914361
 20
-460.0197590545217
 42
-0.0489950121989586
 10
2629.419028772928
 20
-459.6963267950168
 10
2629.247660186386
 20
-459.5073063673406
 10
2629.095596513424
 20
-459.3024476535838
 42
-0.0490971925401401
 10
2628.855097539782
 20
-458.8531757558944
 10
2628.769021603162
 20
-458.6130477273227
 10
2628.706937226509
 20
-458.3656196416629
 42
-0.0492069666053422
 10
2628.65692661099
 20
-457.858428956955
 10
2628.65692661099
 20
-433.358428956955
 10
2628.652108208969
 20
-433.260414381157
 42
0.0739145645196073
 10
2628.580707022993
 20
-432.9758340342861
 10
2628.538700575597
 20
-432.887167536344
 10
2628.488207417747
 20
-432.8030371505592
 42
0.0489950121980463
 10
2628.36381039486
 20
-432.6515451730851
 10
2628.291110230369
 20
-432.5856341782612
 10
2628.212318417386
 20
-432.5271481501986
 42
0.0490971925395912
 10
2628.039521533659
 20
-432.4346485449518
 10
2627.947164599593
 20
-432.4015424154827
 10
2627.851999951262
 20
-432.3776638090778
 42
0.0492069666052937
 10
2627.65692661099
 20
-432.358428956955
 10
2626.75692661099
 20
-432.358428956955
  0
HATCH
  5
2A0
330
1F
100
AcDbEntity
  8
Sc.1_5
  6
Continuous
 62
     7
440
 33554687
370
    15
390
5F
100
AcDbHatch
 10
0.0
 20
0.0
 30
0.0
210
0.0
220
0.0
230
1.0
  2
CwHatchPattern_31
 70
     0
 71
     0
 91
        1
 92
        3
 72
     1
 73
     1
 93
       39
 10
2626.75692661099
 20
-432.358428956955
 42
0.0
 10
2627.65692661099
 20
-432.358428956955
 42
0.0
 10
2627.754941186788
 20
-432.3632473589762
 42
-0.073914564516558
 10
2628.039521533659
 20
-432.4346485449518
 42
0.0
 10
2628.128188031601
 20
-432.4766549923477
 42
0.0
 10
2628.212318417386
 20
-432.5271481501986
 42
-0.0489950122005906
 10
2628.36381039486
 20
-432.6515451730851
 42
0.0
 10
2628.429721389684
 20
-432.724245337576
 42
0.0
 10
2628.488207417747
 20
-432.8030371505592
 42
-0.0490971925402886
 10
2628.580707022993
 20
-432.9758340342861
 42
0.0
 10
2628.613813152462
 20
-433.0681909683521
 42
0.0
 10
2628.637691758868
 20
-433.1633556166828
 42
-0.0492069666035717
 10
2628.65692661099
 20
-433.358428956955
 42
0.0
 10
2628.65692661099
 20
-457.858428956955
 42
0.0
 10
2628.669454456245
 20
-458.1132668540297
 42
0.073914564516536
 10
2628.855097539782
 20
-458.8531757558944
 42
0.0
 10
2628.964314303011
 20
-459.0837086505437
 42
0.0
 10
2629.095596513424
 20
-459.3024476535838
 42
0.0489950122007733
 10
2629.419028772928
 20
-459.6963267950168
 42
0.0
 10
2629.608049200604
 20
-459.867695381559
 42
0.0
 10
2629.812907914361
 20
-460.0197590545217
 42
0.0490971925389748
 10
2630.262179812051
 20
-460.2602580281635
 42
0.0
 10
2630.502307840623
 20
-460.3463339647831
 42
0.0
 10
2630.749735926282
 20
-460.4084183414359
 42
0.049206966605478
 10
2631.25692661099
 20
-460.458428956955
 42
0.0
 10
2655.75692661099
 20
-460.458428956955
 42
0.0
 10
2655.854941186788
 20
-460.4632473589762
 42
-0.0739145645154278
 10
2656.139521533659
 20
-460.5346485449518
 42
0.0
 10
2656.228188031601
 20
-460.5766549923478
 42
0.0
 10
2656.312318417386
 20
-460.6271481501985
 42
-0.0489950122000455
 10
2656.46381039486
 20
-460.7515451730851
 42
0.0
 10
2656.529721389684
 20
-460.8242453375759
 42
0.0
 10
2656.588207417746
 20
-460.9030371505593
 42
-0.0490971925404799
 10
2656.680707022993
 20
-461.075834034286
 42
0.0
 10
2656.713813152463
 20
-461.1681909683521
 42
0.0
 10
2656.737691758867
 20
-461.2633556166828
 42
-0.0492069666036032
 10
2656.75692661099
 20
-461.458428956955
 42
0.0
 10
2656.75692661099
 20
-462.358428956955
 42
0.0
 10
2626.75692661099
 20
-462.358428956955
 42
0.0
 97
        0
 75
     0
 76
     2
 52
0.0
 41
1.0
 77
     0
 78
     1
 53
45.00000000000297
 43
0.0
 44
0.0
 45
-2.828427124746336
 46
2.828427124746044
 79
     0
 98
        0
1001
ACAD
1010
0.0
1020
0.0
1030
0.0
  0
LWPOLYLINE
  5
2A1
330
1F
100
AcDbEntity
  8
Sc.1_5
  6
Continuous
 62
     7
370
    15
390
5F
100
AcDbPolyline
 90
       40
 70
     0
 43
0.0
 38
39.80420231819153
 10
2626.75692661099
 20
-432.358428956955
 10
2627.65692661099
 20
-432.358428956955
 10
2627.754941186788
 20
-432.3632473589762
 42
-0.0739145645165301
 10
2628.039521533659
 20
-432.4346485449518
 10
2628.128188031601
 20
-432.4766549923477
 10
2628.212318417386
 20
-432.5271481501986
 42
-0.0489950122001285
 10
2628.36381039486
 20
-432.6515451730851
 10
2628.429721389684
 20
-432.724245337576
 10
2628.488207417747
 20
-432.8030371505592
 42
-0.0490971925402319
 10
2628.580707022993
 20
-432.9758340342861
 10
2628.613813152462
 20
-433.0681909683521
 10
2628.637691758868
 20
-433.1633556166828
 42
-0.0492069666032746
 10
2628.65692661099
 20
-433.358428956955
 10
2628.65692661099
 20
-457.858428956955
 10
2628.669454456245
 20
-458.1132668540297
 42
0.0739145645169561
 10
2628.855097539782
 20
-458.8531757558944
 10
2628.964314303011
 20
-459.0837086505437
 10
2629.095596513424
 20
-459.3024476535838
 42
0.0489950121996496
 10
2629.419028772928
 20
-459.6963267950168
 10
2629.608049200604
 20
-459.867695381559
 10
2629.812907914361
 20
-460.0197590545217
 42
0.0490971925392951
 10
2630.262179812051
 20
-460.2602580281635
 10
2630.502307840623
 20
-460.3463339647831
 10
2630.749735926282
 20
-460.4084183414359
 42
0.0492069666053439
 10
2631.25692661099
 20
-460.458428956955
 10
2655.75692661099
 20
-460.458428956955
 10
2655.854941186788
 20
-460.4632473589762
 42
-0.0739145645165301
 10
2656.139521533659
 20
-460.5346485449518
 10
2656.228188031601
 20
-460.5766549923478
 10
2656.312318417386
 20
-460.6271481501985
 42
-0.0489950121997552
 10
2656.46381039486
 20
-460.7515451730851
 10
2656.529721389684
 20
-460.8242453375759
 10
2656.588207417746
 20
-460.9030371505593
 42
-0.0490971925416247
 10
2656.680707022993
 20
-461.075834034286
 10
2656.713813152463
 20
-461.1681909683521
 10
2656.737691758867
 20
-461.2633556166828
 42
-0.0492069666051107
 10
2656.75692661099
 20
-461.458428956955
 10
2656.75692661099
 20
-462.358428956955
 10
2626.75692661099
 20
-462.358428956955
 10
2626.75692661099
 20
-432.358428956955
  0
WIPEOUT
  5
2A2
330
1F
100
AcDbEntity
  8
Sc.1_5
  6
Continuous
390
5F
160
               152
310
98000000040000000C0000000E000000120000000C00000016000000000000C20C00000014000000010000006C0000000700000004000000264CB058508DA440A19B2F501CC27BC00000000000000000264CB058508DA440A19B3F501C027CC00000000000000000264CAF585089A440A19B3F501C027CC000000000000000
310
00264CAF585089A440A19B2F501CC27BC00000000000000000
100
AcDbWipeout
 90
        0
 10
2628.65692661099
 20
-448.1319124684032
 30
0.0
 11
4.000000059604645
 21
0.0
 31
0.0
 12
0.0
 22
4.000000059604645
 32
0.0
 13
1.0
 23
1.0
340
0
 70
     7
280
     1
281
    50
282
    50
283
     0
360
0
 71
     2
 91
        5
 14
0.0
 24
-0.4999999999999858
 14
0.0
 24
0.5000000000000142
 14
-0.5
 24
0.5000000000000142
 14
-0.5
 24
-0.4999999999999858
 14
0.0
 24
-0.4999999999999858
290
     0
  0
LWPOLYLINE
  5
2A3
330
1F
100
AcDbEntity
  8
Sc.1_5
  6
Continuous
 62
     9
370
    15
390
5F
100
AcDbPolyline
 90
        5
 70
     0
 43
0.0
 10
2630.656926640792
 20
-444.1319124087986
 10
2630.656926640792
 20
-448.1319124684032
 10
2628.65692661099
 20
-448.1319124684032
 10
2628.65692661099
 20
-444.1319124087986
 10
2630.656926640792
 20
-444.1319124087986
  0
WIPEOUT
  5
2A4
330
1F
100
AcDbEntity
  8
Sc.1_5
  6
Continuous
390
5F
160
               152
310
98000000040000000C0000000E000000120000000C00000016000000000000C20C00000014000000010000006C0000000700000004000000254CAF585089A4409F10F92ED8CF7BC000000000000000000B90CDF02153A4409F10F92ED8CF7BC000000000000000000B90CDF02153A440A01069953EF67BC000000000000000
310
00254CAF585089A440A01069953EF67BC00000000000000000
100
AcDbWipeout
 90
        0
 10
2601.566290305933
 20
-447.3902792076206
 30
0.0
 11
27.09063630505716
 21
0.0
 31
0.0
 12
0.0
 22
27.09063630505716
 32
0.0
 13
1.0
 23
1.0
340
0
 70
     7
280
     1
281
    50
282
    50
283
     0
360
0
 71
     2
 91
        5
 14
0.4999999999999858
 24
0.411408502600775
 14
-0.5000000000000142
 24
0.411408502600775
 14
-0.5000000000000142
 24
0.5
 14
0.4999999999999858
 24
0.5
 14
0.4999999999999858
 24
0.411408502600775
290
     0
  0
LWPOLYLINE
  5
2A5
330
1F
100
AcDbEntity
  8
Sc.1_5
  6
Continuous
 62
     9
370
    15
390
5F
100
AcDbPolyline
 90
        5
 70
     0
 43
0.0
 10
2628.65692661099
 20
-444.9902791718578
 10
2601.566290305933
 20
-444.9902791718578
 10
2601.566290305933
 20
-447.3902792076206
 10
2628.65692661099
 20
-447.3902792076206
 10
2628.65692661099
 20
-444.9902791718578
  0
LINE
  5
2A6
330
1F
100
AcDbEntity
  8
Sc.1_5
  6
Continuous
 62
     9
370
    15
390
5F
100
AcDbLine
 10
2630.656926640792
 20
-447.1817651390102
 30
0.0
 11
2628.65692661099
 21
-447.1817651390102
 31
0.0
  0
LINE
  5
2A7
330
1F
100
AcDbEntity
  8
Sc.1_5
  6
Continuous
 62
     9
370
    15
390
5F
100
AcDbLine
 10
2630.656926640792
 20
-445.1150796776423
 30
0.0
 11
2628.65692661099
 21
-445.1150796776423
 31
0.0
  0
LINE
  5
2A8
330
1F
100
AcDbEntity
  8
Sc.1_5
  6
Continuous
 62
     9
370
    15
390
5F
100
AcDbLine
 10
2601.566290305933
 20
-447.3902792076206
 30
0.0
 11
2602.120373972892
 21
-444.9902791718578
 31
0.0
  0
LINE
  5
2A9
330
1F
100
AcDbEntity
  8
Sc.1_5
  6
Continuous
 62
     9
370
    15
390
5F
100
AcDbLine
 10
2602.090121133253
 20
-447.3902792076206
 30
0.0
 11
2602.644204800209
 21
-444.9902791718578
 31
0.0
  0
LINE
  5
2AA
330
1F
100
AcDbEntity
  8
Sc.1_5
  6
Continuous
 62
     9
370
    15
390
5F
100
AcDbLine
 10
2602.566290320834
 20
-447.3902792076206
 30
0.0
 11
2603.120373987793
 21
-444.9902791718578
 31
0.0
  0
LINE
  5
2AB
330
1F
100
AcDbEntity
  8
Sc.1_5
  6
Continuous
 62
     9
370
    15
390
5F
100
AcDbLine
 10
2603.214221463617
 20
-447.3902792076206
 30
0.0
 11
2603.768305130573
 21
-444.9902791718578
 31
0.0
  0
LINE
  5
2AC
330
1F
100
AcDbEntity
  8
Sc.1_5
  6
Continuous
 62
     9
370
    15
390
5F
100
AcDbLine
 10
2603.712037324207
 20
-447.3902792076206
 30
0.0
 11
2604.266120991163
 21
-444.9902791718578
 31
0.0
  0
LINE
  5
2AD
330
1F
100
AcDbEntity
  8
Sc.1_5
  6
Continuous
 62
     9
370
    15
390
5F
100
AcDbLine
 10
2604.161677456353
 20
-447.3902792076206
 30
0.0
 11
2604.715761123309
 21
-444.9902791718578
 31
0.0
  0
LINE
  5
2AE
330
1F
100
AcDbEntity
  8
Sc.1_5
  6
Continuous
 62
     9
370
    15
390
5F
100
AcDbLine
 10
2604.739786197681
 20
-447.3902792076206
 30
0.0
 11
2605.293869864641
 21
-444.9902791718578
 31
0.0
  0
LINE
  5
2AF
330
1F
100
AcDbEntity
  8
Sc.1_5
  6
Continuous
 62
     9
370
    15
390
5F
100
AcDbLine
 10
2605.221543482123
 20
-447.3902792076206
 30
0.0
 11
2605.775627149083
 21
-444.9902791718578
 31
0.0
  0
LINE
  5
2B0
330
1F
100
AcDbEntity
  8
Sc.1_5
  6
Continuous
 62
     9
370
    15
390
5F
100
AcDbLine
 10
2605.566290365537
 20
-447.3902792076206
 30
0.0
 11
2606.120374032497
 21
-444.9902791718578
 31
0.0
  0
LINE
  5
2B1
330
1F
100
AcDbEntity
  8
Sc.1_5
  6
Continuous
 62
     9
370
    15
390
5F
100
AcDbLine
 10
2606.136882322564
 20
-447.3902792076206
 30
0.0
 11
2606.690965989523
 21
-444.9902791718578
 31
0.0
  0
LINE
  5
2B2
330
1F
100
AcDbEntity
  8
Sc.1_5
  6
Continuous
 62
     9
370
    15
390
5F
100
AcDbLine
 10
2606.566290380439
 20
-447.3902792076206
 30
0.0
 11
2607.120374047398
 21
-444.9902791718578
 31
0.0
  0
LINE
  5
2B3
330
1F
100
AcDbEntity
  8
Sc.1_5
  6
Continuous
 62
     9
370
    15
390
5F
100
AcDbLine
 10
2607.067724471466
 20
-447.3902792076206
 30
0.0
 11
2607.621808138423
 21
-444.9902791718578
 31
0.0
  0
LINE
  5
2B4
330
1F
100
AcDbEntity
  8
Sc.1_5
  6
Continuous
 62
     9
370
    15
390
5F
100
AcDbLine
 10
2607.56629039534
 20
-447.3902792076206
 30
0.0
 11
2608.120374062299
 21
-444.9902791718578
 31
0.0
  0
HATCH
  5
2B5
330
1F
100
AcDbEntity
  8
Sc.1_5
  6
Continuous
 62
     7
440
 33554687
370
    15
390
5F
100
AcDbHatch
 10
0.0
 20
0.0
 30
0.0
210
0.0
220
0.0
230
1.0
  2
CwHatchPattern_31
 70
     0
 71
     0
 91
        1
 92
        3
 72
     1
 73
     1
 93
       30
 10
2641.75692661099
 20
-535.7431692747746
 42
0.0
 10
2641.75692661099
 20
-533.5431692747746
 42
0.0
 10
2630.35692661099
 20
-533.5431692747746
 42
0.0
 10
2630.121691629075
 20
-533.5316051099239
 42
-0.0739145645168556
 10
2629.438698796585
 20
-533.3602422635821
 42
0.0
 10
2629.225899201524
 20
-533.259426789832
 42
0.0
 10
2629.02398627564
 20
-533.1382432109903
 42
-0.0489950121985954
 10
2628.660405529702
 20
-532.8396903560625
 42
0.0
 10
2628.502219142125
 20
-532.6652099612843
 42
0.0
 10
2628.361852674775
 20
-532.4761096101245
 42
-0.0490971925401244
 10
2628.139853622182
 20
-532.0613970891799
 42
0.0
 10
2628.060398911457
 20
-531.8397404474218
 42
0.0
 10
2628.003090256085
 20
-531.6113452914282
 42
-0.0492069666054655
 10
2627.95692661099
 20
-531.1431692747746
 42
0.0
 10
2627.95692661099
 20
-504.3431692747746
 42
0.0
 10
2627.968490775841
 20
-504.1079342928592
 42
-0.0739145645165246
 10
2628.139853622182
 20
-503.4249414603693
 42
0.0
 10
2628.240669095932
 20
-503.2121418653079
 42
0.0
 10
2628.361852674775
 20
-503.0102289394247
 42
-0.0489950122005069
 10
2628.660405529702
 20
-502.6466481934867
 42
0.0
 10
2628.83488592448
 20
-502.4884618059093
 42
0.0
 10
2629.02398627564
 20
-502.3480953385589
 42
-0.0490971925400085
 10
2629.438698796585
 20
-502.1260962859667
 42
0.0
 10
2629.660355438343
 20
-502.046641575241
 42
0.0
 10
2629.888750594337
 20
-501.9893329198692
 42
-0.049206966605418
 10
2630.35692661099
 20
-501.9431692747746
 42
0.0
 10
2641.75692661099
 20
-501.9431692747746
 42
0.0
 10
2641.75692661099
 20
-499.7431692747746
 42
0.0
 10
2626.75692661099
 20
-499.7431692747746
 42
0.0
 10
2626.75692661099
 20
-535.7431692747746
 42
0.0
 97
        0
 75
     0
 76
     2
 52
0.0
 41
1.0
 77
     0
 78
     1
 53
45.00000000000297
 43
0.0
 44
0.0
 45
-2.828427124746336
 46
2.828427124746044
 79
     0
 98
        0
1001
ACAD
1010
0.0
1020
0.0
1030
0.0
  0
LWPOLYLINE
  5
2B6
330
1F
100
AcDbEntity
  8
Sc.1_5
  6
Continuous
 62
     7
370
    15
390
5F
100
AcDbPolyline
 90
       31
 70
     0
 43
0.0
 38
-39.80420231819153
 10
2641.75692661099
 20
-535.7431692747746
 10
2641.75692661099
 20
-533.5431692747746
 10
2630.35692661099
 20
-533.5431692747746
 10
2630.121691629075
 20
-533.5316051099239
 42
-0.0739145645171228
 10
2629.438698796585
 20
-533.3602422635821
 10
2629.225899201524
 20
-533.259426789832
 10
2629.02398627564
 20
-533.1382432109903
 42
-0.0489950121985225
 10
2628.660405529702
 20
-532.8396903560625
 10
2628.502219142125
 20
-532.6652099612843
 10
2628.361852674775
 20
-532.4761096101245
 42
-0.0490971925394769
 10
2628.139853622182
 20
-532.0613970891799
 10
2628.060398911457
 20
-531.8397404474218
 10
2628.003090256085
 20
-531.6113452914282
 42
-0.0492069666055998
 10
2627.95692661099
 20
-531.1431692747746
 10
2627.95692661099
 20
-504.3431692747746
 10
2627.968490775841
 20
-504.1079342928592
 42
-0.0739145645168644
 10
2628.139853622182
 20
-503.4249414603693
 10
2628.240669095932
 20
-503.2121418653079
 10
2628.361852674775
 20
-503.0102289394247
 42
-0.0489950122001249
 10
2628.660405529702
 20
-502.6466481934867
 10
2628.83488592448
 20
-502.4884618059093
 10
2629.02398627564
 20
-502.3480953385589
 42
-0.049097192538812
 10
2629.438698796585
 20
-502.1260962859667
 10
2629.660355438343
 20
-502.046641575241
 10
2629.888750594337
 20
-501.9893329198692
 42
-0.0492069666055606
 10
2630.35692661099
 20
-501.9431692747746
 10
2641.75692661099
 20
-501.9431692747746
 10
2641.75692661099
 20
-499.7431692747746
 10
2626.75692661099
 20
-499.7431692747746
 10
2626.75692661099
 20
-535.7431692747746
 10
2641.75692661099
 20
-535.7431692747746
  0
HATCH
  5
2B7
330
1F
100
AcDbEntity
  8
Sc.1_5
  6
Continuous
 62
     9
440
 33554687
370
    15
390
5F
100
AcDbHatch
 10
0.0
 20
0.0
 30
0.0
210
0.0
220
0.0
230
1.0
  2
CwHatchPattern_215
 70
     0
 71
     0
 91
        1
 92
        3
 72
     0
 73
     1
 93
        4
 10
2630.656926640792
 20
-460.458428956955
 10
2732.775213182808
 20
-460.458428956955
 10
2732.775213182808
 20
-436.4585167662063
 10
2630.656926640793
 20
-436.4585167662063
 97
        0
 75
     0
 76
     2
 52
0.0
 41
1.0
 77
     0
 78
    66
 53
0.0
 43
2630.656926640792
 44
-460.458428956955
 45
0.0
 46
41.23109817504883
 79
     4
 49
8.246199607849121
 49
-12.36929988861084
 49
4.123099803924561
 49
-16.49239921569824
 53
0.0
 43
2659.518626698776
 44
-459.4276289720231
 45
0.0
 46
41.23109817504883
 79
     2
 49
8.246199607849121
 49
-32.98479843139648
 53
0.0
 43
2655.395526418014
 44
-457.3661290187531
 45
0.0
 46
41.23109817504883
 79
     2
 49
4.123099803924561
 49
-37.10800170898438
 53
0.0
 43
2632.718526610656
 44
-456.3353291530304
 45
0.0
 46
41.23109817504883
 79
     4
 49
2.061599969863892
 49
-28.8617000579834
 49
2.061599969863892
 49
-8.246199607849121
 53
0.0
 43
2647.149325856491
 44
-454.273728944748
 45
0.0
 46
41.23109817504883
 79
     4
 49
8.246199607849121
 49
-12.36929988861084
 49
2.061599969863892
 49
-18.55400085449219
 53
0.0
 43
2636.841626652999
 44
-453.2430287379914
 45
0.0
 46
41.23109817504883
 79
     2
 49
6.184700012207031
 49
-35.0463981628418
 53
0.0
 43
2647.149325856491
 44
-452.2122293491059
 45
0.0
 46
41.23109817504883
 79
     2
 49
12.36929988861084
 49
-28.8617000579834
 53
0.0
 43
2634.780026444717
 44
-451.1814285297089
 45
0.0
 46
41.23109817504883
 79
     2
 49
8.246199607849121
 49
-32.98479843139648
 53
0.0
 43
2651.272426137252
 44
-450.1506286639863
 45
0.0
 46
41.23109817504883
 79
     2
 49
20.61549949645996
 49
-20.61549949645996
 53
0.0
 43
2638.903126248641
 44
-448.0891290683442
 45
0.0
 46
41.23109817504883
 79
     4
 49
4.123099803924561
 49
-12.36929988861084
 49
8.246199607849121
 49
-16.49239921569824
 53
0.0
 43
2667.764928349777
 44
-447.0583292026215
 45
0.0
 46
41.23109817504883
 79
     2
 49
8.246199607849121
 49
-32.98479843139648
 53
0.0
 43
2659.518626698776
 44
-446.0275293368989
 45
0.0
 46
41.23109817504883
 79
     2
 49
4.123099803924561
 49
-37.10800170898438
 53
0.0
 43
2651.272426137252
 44
-444.9968286533051
 45
0.0
 46
41.23109817504883
 79
     2
 49
4.123099803924561
 49
-37.10800170898438
 53
0.0
 43
2630.656926640792
 44
-443.9660297412568
 45
0.0
 46
41.23109817504883
 79
     2
 49
8.246199607849121
 49
-32.98479843139648
 53
0.0
 43
2651.272426137252
 44
-442.9352298755341
 45
0.0
 46
41.23109817504883
 79
     2
 49
8.246199607849121
 49
-32.98479843139648
 53
0.0
 43
2651.272426137252
 44
-440.8736282367402
 45
0.0
 46
41.23109817504883
 79
     4
 49
8.246199607849121
 49
-8.246199607849121
 49
8.246199607849121
 49
-16.49239921569824
 53
0.0
 43
2643.026226529403
 44
-438.8121295947724
 45
0.0
 46
41.23109817504883
 79
     4
 49
4.123099803924561
 49
-20.61549949645996
 49
8.246199607849121
 49
-8.246199607849121
 53
0.0
 43
2651.272426137252
 44
-437.7813297290497
 45
0.0
 46
41.23109817504883
 79
     2
 49
12.36929988861084
 49
-28.8617000579834
 53
0.0
 43
2651.272426137252
 44
-435.7198291797333
 45
0.0
 46
41.23109817504883
 79
     2
 49
8.246199607849121
 49
-32.98479843139648
 53
0.0
 43
2634.780026444717
 44
-434.6890293140107
 45
0.0
 46
41.23109817504883
 79
     4
 49
12.36929988861084
 49
-16.49239921569824
 49
4.123099803924561
 49
-8.246199607849121
 53
0.0
 43
2634.780026444717
 44
-432.6274295825654
 45
0.0
 46
41.23109817504883
 79
     2
 49
20.61549949645996
 49
-20.61549949645996
 53
0.0
 43
2659.518626698776
 44
-431.5967288989716
 45
0.0
 46
41.23109817504883
 79
     2
 49
4.123099803924561
 49
-37.10800170898438
 53
0.0
 43
2647.149325856491
 44
-430.5659290332489
 45
0.0
 46
41.23109817504883
 79
     2
 49
8.246199607849121
 49
-32.98479843139648
 53
0.0
 43
2638.903126248641
 44
-429.5351291675263
 45
0.0
 46
41.23109817504883
 79
     4
 49
4.123099803924561
 49
-16.49239921569824
 49
4.123099803924561
 49
-16.49239921569824
 53
0.0
 43
2634.780026444717
 44
-428.5043293018036
 45
0.0
 46
41.23109817504883
 79
     4
 49
4.123099803924561
 49
-12.36929988861084
 49
8.246199607849121
 49
-16.49239921569824
 53
0.0
 43
2643.026226529403
 44
-427.4736305255585
 45
0.0
 46
41.23109817504883
 79
     4
 49
4.123099803924561
 49
-20.61549949645996
 49
4.123099803924561
 49
-12.36929988861084
 53
0.0
 43
2651.272426137252
 44
-426.4428306598359
 45
0.0
 46
41.23109817504883
 79
     2
 49
12.36929988861084
 49
-28.8617000579834
 53
0.0
 43
2634.780026444717
 44
-424.3812271136933
 45
0.0
 46
41.23109817504883
 79
     2
 49
8.246199607849121
 49
-32.98479843139648
 53
0.0
 43
2655.395526418014
 44
-423.3504272479706
 45
0.0
 46
41.23109817504883
 79
     2
 49
4.123099803924561
 49
-37.10800170898438
 53
0.0
 43
2663.641725072189
 44
-422.3197303790741
 45
0.0
 46
41.23109817504883
 79
     2
 49
4.123099803924561
 49
-37.10800170898438
 53
14.03619956970307
 43
2659.518626698776
 44
-457.3661290187531
 45
-41.23105625616451
 46
0.0000315899379384
 79
     2
 49
4.246799945831299
 49
-165.7532043457031
 53
14.03619956970307
 43
2663.641725072189
 44
-448.0891290683442
 45
-41.23105625616451
 46
0.0000315899379384
 79
     2
 49
4.246799945831299
 49
-165.7532043457031
 53
14.03619956970307
 43
2659.518626698776
 44
-423.3504272479706
 45
-41.23105625616451
 46
0.0000315899379384
 79
     2
 49
4.246799945831299
 49
-165.7532043457031
 53
14.03619956970307
 43
2647.149325856491
 44
-438.8121295947724
 45
-41.23105625616451
 46
0.0000315899379384
 79
     2
 49
4.246799945831299
 49
-165.7532043457031
 53
14.03619956970307
 43
2655.395526418014
 44
-432.6274295825654
 45
-41.23105625616451
 46
0.0000315899379384
 79
     2
 49
4.246799945831299
 49
-165.7532043457031
 53
14.03619956970307
 43
2659.518626698776
 44
-435.7198291797333
 45
-41.23105625616451
 46
0.0000315899379384
 79
     2
 49
4.246799945831299
 49
-165.7532043457031
 53
14.03619956970307
 43
2638.903126248641
 44
-428.5043293018036
 45
-41.23105625616451
 46
0.0000315899379384
 79
     2
 49
4.246799945831299
 49
-165.7532043457031
 53
14.03619956970307
 43
2655.395526418014
 44
-430.5659290332489
 45
-41.23105625616451
 46
0.0000315899379384
 79
     2
 49
4.246799945831299
 49
-165.7532043457031
 53
14.03619956970307
 43
2663.641725072189
 44
-446.0275293368989
 45
-41.23105625616451
 46
0.0000315899379384
 79
     2
 49
8.493599891662598
 49
-161.5063934326172
 53
14.03619956970307
 43
2659.518626698776
 44
-442.9352298755341
 45
-41.23105625616451
 46
0.0000315899379384
 79
     2
 49
8.493599891662598
 49
-161.5063934326172
 53
14.03619956970307
 43
2659.518626698776
 44
-440.8736282367402
 45
-41.23105625616451
 46
0.0000315899379384
 79
     2
 49
8.493599891662598
 49
-161.5063934326172
 53
165.9638061523547
 43
2647.149325856491
 44
-454.273728944748
 45
-41.23105625616114
 46
-0.0000357076318807
 79
     4
 49
4.246799945831299
 49
-8.493599891662598
 49
4.246799945831299
 49
-153.0128021240234
 53
165.9638061523547
 43
2638.903126248641
 44
-448.0891290683442
 45
-41.23105625616114
 46
-0.0000357076318807
 79
     2
 49
4.246799945831299
 49
-165.7532043457031
 53
165.9638061523547
 43
2638.903126248641
 44
-429.5351291675263
 45
-41.23105625616114
 46
-0.0000357076318807
 79
     2
 49
8.493599891662598
 49
-161.5063934326172
 53
194.036193847669
 43
2659.518626698776
 44
-459.4276289720231
 45
41.23105625616115
 46
-0.0000357076148454
 79
     2
 49
4.246799945831299
 49
-165.7532043457031
 53
345.9637145996322
 43
2667.764928349777
 44
-459.4276289720231
 45
41.23105625616557
 46
-0.0000301753264278
 79
     2
 49
4.246799945831299
 49
-165.7532043457031
 53
345.9637145996322
 43
2655.395526418014
 44
-444.9968286533051
 45
41.23105625616557
 46
-0.0000301753264278
 79
     2
 49
4.246799945831299
 49
-165.7532043457031
 53
345.9637145996322
 43
2663.641725072189
 44
-437.7813297290497
 45
41.23105625616557
 46
-0.0000301753264278
 79
     2
 49
4.246799945831299
 49
-165.7532043457031
 53
345.9637145996322
 43
2647.149325856491
 44
-434.6890293140107
 45
41.23105625616557
 46
-0.0000301753264278
 79
     2
 49
4.246799945831299
 49
-165.7532043457031
 53
345.9637145996322
 43
2643.026226529403
 44
-429.5351291675263
 45
41.23105625616557
 46
-0.0000301753264278
 79
     2
 49
4.246799945831299
 49
-165.7532043457031
 53
345.9637145996322
 43
2647.149325856491
 44
-427.4736305255585
 45
41.23105625616557
 46
-0.0000301753264278
 79
     2
 49
4.246799945831299
 49
-165.7532043457031
 53
345.9637145996322
 43
2647.149325856491
 44
-434.6890293140107
 45
41.23105625616557
 46
-0.0000301753264278
 79
     2
 49
4.246799945831299
 49
-165.7532043457031
 53
345.9637145996322
 43
2659.518626698776
 44
-428.5043293018036
 45
41.23105625616557
 46
-0.0000301753264278
 79
     2
 49
16.9871997833252
 49
-153.0128021240234
 53
345.9637145996322
 43
2634.780026444717
 44
-456.3353291530304
 45
41.23105625616557
 46
-0.0000301753264278
 79
     2
 49
16.9871997833252
 49
-153.0128021240234
 53
345.9637145996322
 43
2638.903126248641
 44
-453.2430287379914
 45
41.23105625616557
 46
-0.0000301753264278
 79
     2
 49
16.9871997833252
 49
-153.0128021240234
 53
345.9637145996322
 43
2643.026226529403
 44
-451.1814285297089
 45
41.23105625616557
 46
-0.0000301753264278
 79
     4
 49
4.246799945831299
 49
-8.493599891662598
 49
8.493599891662598
 49
-148.7660064697266
 53
345.9637145996322
 43
2643.026226529403
 44
-448.0891290683442
 45
41.23105625616557
 46
-0.0000301753264278
 79
     4
 49
8.493599891662598
 49
-8.493599891662598
 49
8.493599891662598
 49
-144.5191955566406
 53
345.9637145996322
 43
2638.903126248641
 44
-443.9660297412568
 45
41.23105625616557
 46
-0.0000301753264278
 79
     2
 49
16.9871997833252
 49
-153.0128021240234
 53
345.9637145996322
 43
2634.780026444717
 44
-440.8736282367402
 45
41.23105625616557
 46
-0.0000301753264278
 79
     2
 49
16.9871997833252
 49
-153.0128021240234
 53
345.9637145996322
 43
2634.780026444717
 44
-438.8121295947724
 45
41.23105625616557
 46
-0.0000301753264278
 79
     2
 49
16.9871997833252
 49
-153.0128021240234
 53
345.9637145996322
 43
2663.641725072189
 44
-426.4428306598359
 45
41.23105625616557
 46
-0.0000301753264278
 79
     2
 49
4.246799945831299
 49
-165.7532043457031
 53
345.9638061523666
 43
2667.764928349777
 44
-422.3197303790741
 45
41.23105625616114
 46
0.0000357076404445
 79
     2
 49
8.493599891662596
 49
-161.5063934326172
 53
345.9638061523666
 43
2643.026226529403
 44
-424.3812271136933
 45
41.23105625616114
 46
0.0000357076404445
 79
     2
 49
8.493599891662596
 49
-161.5063934326172
 53
345.9637145996322
 43
2638.903126248641
 44
-460.458428956955
 45
41.23105625616557
 46
-0.0000301753264278
 79
     2
 49
16.9871997833252
 49
-153.0128021240234
 53
345.9637145996322
 43
2663.641725072189
 44
-431.5967288989716
 45
41.23105625616557
 46
-0.0000301753264278
 79
     2
 49
12.74040031433105
 49
-157.2595977783203
 53
345.9637145996322
 43
2667.764928349777
 44
-434.6890293140107
 45
41.23105625616557
 46
-0.0000301753264278
 79
     2
 49
25.48080062866211
 49
-144.5191955566406
 98
        0
1001
ACAD
1010
2630.656926640792
1020
-460.458428956955
1030
0.0
  0
LWPOLYLINE
  5
2B8
330
1F
100
AcDbEntity
  8
Sc.1_5
  6
Continuous
 62
     7
370
    15
390
5F
100
AcDbPolyline
 90
        5
 70
     0
 43
0.0
 10
2630.656926640792
 20
-460.458428956955
 10
2732.775213182808
 20
-460.458428956955
 10
2732.775213182808
 20
-436.4585167662063
 10
2630.656926640793
 20
-436.4585167662063
 10
2630.656926640792
 20
-460.458428956955
  0
HATCH
  5
2B9
330
1F
100
AcDbEntity
  8
Sc.1_5
  6
Continuous
 62
     9
440
 33554687
370
    15
390
5F
100
AcDbHatch
 10
0.0
 20
0.0
 30
0.0
210
0.0
220
0.0
230
1.0
  2
CwHatchPattern_215
 70
     0
 71
     0
 91
        1
 92
        3
 72
     0
 73
     1
 93
        4
 10
2630.35692661099
 20
-533.5431692747746
 10
2732.475213153006
 20
-533.5431692747746
 10
2732.475213153006
 20
-509.543257084026
 10
2630.356926610991
 20
-509.543257084026
 97
        0
 75
     0
 76
     2
 52
0.0
 41
1.0
 77
     0
 78
    66
 53
0.0
 43
2630.35692661099
 44
-533.5431692747746
 45
0.0
 46
41.23109817504883
 79
     4
 49
8.246199607849121
 49
-12.36929988861084
 49
4.123099803924561
 49
-16.49239921569824
 53
0.0
 43
2659.218626668973
 44
-532.5123692898427
 45
0.0
 46
41.23109817504883
 79
     2
 49
8.246199607849121
 49
-32.98479843139648
 53
0.0
 43
2655.095526388212
 44
-530.4508693365727
 45
0.0
 46
41.23109817504883
 79
     2
 49
4.123099803924561
 49
-37.10800170898438
 53
0.0
 43
2632.418526580854
 44
-529.4200694708501
 45
0.0
 46
41.23109817504883
 79
     4
 49
2.061599969863892
 49
-28.8617000579834
 49
2.061599969863892
 49
-8.246199607849121
 53
0.0
 43
2646.849325826688
 44
-527.3584692625676
 45
0.0
 46
41.23109817504883
 79
     4
 49
8.246199607849121
 49
-12.36929988861084
 49
2.061599969863892
 49
-18.55400085449219
 53
0.0
 43
2636.541626623197
 44
-526.327769055811
 45
0.0
 46
41.23109817504883
 79
     2
 49
6.184700012207031
 49
-35.0463981628418
 53
0.0
 43
2646.849325826688
 44
-525.2969696669255
 45
0.0
 46
41.23109817504883
 79
     2
 49
12.36929988861084
 49
-28.8617000579834
 53
0.0
 43
2634.480026414914
 44
-524.2661688475285
 45
0.0
 46
41.23109817504883
 79
     2
 49
8.246199607849121
 49
-32.98479843139648
 53
0.0
 43
2650.97242610745
 44
-523.2353689818059
 45
0.0
 46
41.23109817504883
 79
     2
 49
20.61549949645996
 49
-20.61549949645996
 53
0.0
 43
2638.603126218839
 44
-521.1738693861638
 45
0.0
 46
41.23109817504883
 79
     4
 49
4.123099803924561
 49
-12.36929988861084
 49
8.246199607849121
 49
-16.49239921569824
 53
0.0
 43
2667.464928319974
 44
-520.1430695204411
 45
0.0
 46
41.23109817504883
 79
     2
 49
8.246199607849121
 49
-32.98479843139648
 53
0.0
 43
2659.218626668973
 44
-519.1122696547185
 45
0.0
 46
41.23109817504883
 79
     2
 49
4.123099803924561
 49
-37.10800170898438
 53
0.0
 43
2650.97242610745
 44
-518.0815689711247
 45
0.0
 46
41.23109817504883
 79
     2
 49
4.123099803924561
 49
-37.10800170898438
 53
0.0
 43
2630.35692661099
 44
-517.0507700590764
 45
0.0
 46
41.23109817504883
 79
     2
 49
8.246199607849121
 49
-32.98479843139648
 53
0.0
 43
2650.97242610745
 44
-516.0199701933537
 45
0.0
 46
41.23109817504883
 79
     2
 49
8.246199607849121
 49
-32.98479843139648
 53
0.0
 43
2650.97242610745
 44
-513.9583685545598
 45
0.0
 46
41.23109817504883
 79
     4
 49
8.246199607849121
 49
-8.246199607849121
 49
8.246199607849121
 49
-16.49239921569824
 53
0.0
 43
2642.726226499601
 44
-511.896869912592
 45
0.0
 46
41.23109817504883
 79
     4
 49
4.123099803924561
 49
-20.61549949645996
 49
8.246199607849121
 49
-8.246199607849121
 53
0.0
 43
2650.97242610745
 44
-510.8660700468694
 45
0.0
 46
41.23109817504883
 79
     2
 49
12.36929988861084
 49
-28.8617000579834
 53
0.0
 43
2650.97242610745
 44
-508.804569497553
 45
0.0
 46
41.23109817504883
 79
     2
 49
8.246199607849121
 49
-32.98479843139648
 53
0.0
 43
2634.480026414914
 44
-507.7737696318303
 45
0.0
 46
41.23109817504883
 79
     4
 49
12.36929988861084
 49
-16.49239921569824
 49
4.123099803924561
 49
-8.246199607849121
 53
0.0
 43
2634.480026414914
 44
-505.712169900385
 45
0.0
 46
41.23109817504883
 79
     2
 49
20.61549949645996
 49
-20.61549949645996
 53
0.0
 43
2659.218626668973
 44
-504.6814692167912
 45
0.0
 46
41.23109817504883
 79
     2
 49
4.123099803924561
 49
-37.10800170898438
 53
0.0
 43
2646.849325826688
 44
-503.6506693510686
 45
0.0
 46
41.23109817504883
 79
     2
 49
8.246199607849121
 49
-32.98479843139648
 53
0.0
 43
2638.603126218839
 44
-502.6198694853459
 45
0.0
 46
41.23109817504883
 79
     4
 49
4.123099803924561
 49
-16.49239921569824
 49
4.123099803924561
 49
-16.49239921569824
 53
0.0
 43
2634.480026414914
 44
-501.5890696196233
 45
0.0
 46
41.23109817504883
 79
     4
 49
4.123099803924561
 49
-12.36929988861084
 49
8.246199607849121
 49
-16.49239921569824
 53
0.0
 43
2642.726226499601
 44
-500.5583708433782
 45
0.0
 46
41.23109817504883
 79
     4
 49
4.123099803924561
 49
-20.61549949645996
 49
4.123099803924561
 49
-12.36929988861084
 53
0.0
 43
2650.97242610745
 44
-499.5275709776555
 45
0.0
 46
41.23109817504883
 79
     2
 49
12.36929988861084
 49
-28.8617000579834
 53
0.0
 43
2634.480026414914
 44
-497.4659674315129
 45
0.0
 46
41.23109817504883
 79
     2
 49
8.246199607849121
 49
-32.98479843139648
 53
0.0
 43
2655.095526388212
 44
-496.4351675657903
 45
0.0
 46
41.23109817504883
 79
     2
 49
4.123099803924561
 49
-37.10800170898438
 53
0.0
 43
2663.341725042386
 44
-495.4044706968938
 45
0.0
 46
41.23109817504883
 79
     2
 49
4.123099803924561
 49
-37.10800170898438
 53
14.03619956970307
 43
2659.218626668973
 44
-530.4508693365727
 45
-41.23105625616451
 46
0.0000315899379384
 79
     2
 49
4.246799945831299
 49
-165.7532043457031
 53
14.03619956970307
 43
2663.341725042386
 44
-521.1738693861638
 45
-41.23105625616451
 46
0.0000315899379384
 79
     2
 49
4.246799945831299
 49
-165.7532043457031
 53
14.03619956970307
 43
2659.218626668973
 44
-496.4351675657903
 45
-41.23105625616451
 46
0.0000315899379384
 79
     2
 49
4.246799945831299
 49
-165.7532043457031
 53
14.03619956970307
 43
2646.849325826688
 44
-511.896869912592
 45
-41.23105625616451
 46
0.0000315899379384
 79
     2
 49
4.246799945831299
 49
-165.7532043457031
 53
14.03619956970307
 43
2655.095526388212
 44
-505.712169900385
 45
-41.23105625616451
 46
0.0000315899379384
 79
     2
 49
4.246799945831299
 49
-165.7532043457031
 53
14.03619956970307
 43
2659.218626668973
 44
-508.804569497553
 45
-41.23105625616451
 46
0.0000315899379384
 79
     2
 49
4.246799945831299
 49
-165.7532043457031
 53
14.03619956970307
 43
2638.603126218839
 44
-501.5890696196233
 45
-41.23105625616451
 46
0.0000315899379384
 79
     2
 49
4.246799945831299
 49
-165.7532043457031
 53
14.03619956970307
 43
2655.095526388212
 44
-503.6506693510686
 45
-41.23105625616451
 46
0.0000315899379384
 79
     2
 49
4.246799945831299
 49
-165.7532043457031
 53
14.03619956970307
 43
2663.341725042386
 44
-519.1122696547185
 45
-41.23105625616451
 46
0.0000315899379384
 79
     2
 49
8.493599891662598
 49
-161.5063934326172
 53
14.03619956970307
 43
2659.218626668973
 44
-516.0199701933537
 45
-41.23105625616451
 46
0.0000315899379384
 79
     2
 49
8.493599891662598
 49
-161.5063934326172
 53
14.03619956970307
 43
2659.218626668973
 44
-513.9583685545598
 45
-41.23105625616451
 46
0.0000315899379384
 79
     2
 49
8.493599891662598
 49
-161.5063934326172
 53
165.9638061523547
 43
2646.849325826688
 44
-527.3584692625676
 45
-41.23105625616114
 46
-0.0000357076318807
 79
     4
 49
4.246799945831299
 49
-8.493599891662598
 49
4.246799945831299
 49
-153.0128021240234
 53
165.9638061523547
 43
2638.603126218839
 44
-521.1738693861638
 45
-41.23105625616114
 46
-0.0000357076318807
 79
     2
 49
4.246799945831299
 49
-165.7532043457031
 53
165.9638061523547
 43
2638.603126218839
 44
-502.6198694853459
 45
-41.23105625616114
 46
-0.0000357076318807
 79
     2
 49
8.493599891662598
 49
-161.5063934326172
 53
194.036193847669
 43
2659.218626668973
 44
-532.5123692898427
 45
41.23105625616115
 46
-0.0000357076148454
 79
     2
 49
4.246799945831299
 49
-165.7532043457031
 53
345.9637145996322
 43
2667.464928319974
 44
-532.5123692898427
 45
41.23105625616557
 46
-0.0000301753264278
 79
     2
 49
4.246799945831299
 49
-165.7532043457031
 53
345.9637145996322
 43
2655.095526388212
 44
-518.0815689711247
 45
41.23105625616557
 46
-0.0000301753264278
 79
     2
 49
4.246799945831299
 49
-165.7532043457031
 53
345.9637145996322
 43
2663.341725042386
 44
-510.8660700468694
 45
41.23105625616557
 46
-0.0000301753264278
 79
     2
 49
4.246799945831299
 49
-165.7532043457031
 53
345.9637145996322
 43
2646.849325826688
 44
-507.7737696318303
 45
41.23105625616557
 46
-0.0000301753264278
 79
     2
 49
4.246799945831299
 49
-165.7532043457031
 53
345.9637145996322
 43
2642.726226499601
 44
-502.6198694853459
 45
41.23105625616557
 46
-0.0000301753264278
 79
     2
 49
4.246799945831299
 49
-165.7532043457031
 53
345.9637145996322
 43
2646.849325826688
 44
-500.5583708433782
 45
41.23105625616557
 46
-0.0000301753264278
 79
     2
 49
4.246799945831299
 49
-165.7532043457031
 53
345.9637145996322
 43
2646.849325826688
 44
-507.7737696318303
 45
41.23105625616557
 46
-0.0000301753264278
 79
     2
 49
4.246799945831299
 49
-165.7532043457031
 53
345.9637145996322
 43
2659.218626668973
 44
-501.5890696196233
 45
41.23105625616557
 46
-0.0000301753264278
 79
     2
 49
16.9871997833252
 49
-153.0128021240234
 53
345.9637145996322
 43
2634.480026414914
 44
-529.4200694708501
 45
41.23105625616557
 46
-0.0000301753264278
 79
     2
 49
16.9871997833252
 49
-153.0128021240234
 53
345.9637145996322
 43
2638.603126218839
 44
-526.327769055811
 45
41.23105625616557
 46
-0.0000301753264278
 79
     2
 49
16.9871997833252
 49
-153.0128021240234
 53
345.9637145996322
 43
2642.726226499601
 44
-524.2661688475285
 45
41.23105625616557
 46
-0.0000301753264278
 79
     4
 49
4.246799945831299
 49
-8.493599891662598
 49
8.493599891662598
 49
-148.7660064697266
 53
345.9637145996322
 43
2642.726226499601
 44
-521.1738693861638
 45
41.23105625616557
 46
-0.0000301753264278
 79
     4
 49
8.493599891662598
 49
-8.493599891662598
 49
8.493599891662598
 49
-144.5191955566406
 53
345.9637145996322
 43
2638.603126218839
 44
-517.0507700590764
 45
41.23105625616557
 46
-0.0000301753264278
 79
     2
 49
16.9871997833252
 49
-153.0128021240234
 53
345.9637145996322
 43
2634.480026414914
 44
-513.9583685545598
 45
41.23105625616557
 46
-0.0000301753264278
 79
     2
 49
16.9871997833252
 49
-153.0128021240234
 53
345.9637145996322
 43
2634.480026414914
 44
-511.896869912592
 45
41.23105625616557
 46
-0.0000301753264278
 79
     2
 49
16.9871997833252
 49
-153.0128021240234
 53
345.9637145996322
 43
2663.341725042386
 44
-499.5275709776555
 45
41.23105625616557
 46
-0.0000301753264278
 79
     2
 49
4.246799945831299
 49
-165.7532043457031
 53
345.9638061523666
 43
2667.464928319974
 44
-495.4044706968938
 45
41.23105625616114
 46
0.0000357076404445
 79
     2
 49
8.493599891662596
 49
-161.5063934326172
 53
345.9638061523666
 43
2642.726226499601
 44
-497.4659674315129
 45
41.23105625616114
 46
0.0000357076404445
 79
     2
 49
8.493599891662596
 49
-161.5063934326172
 53
345.9637145996322
 43
2638.603126218839
 44
-533.5431692747746
 45
41.23105625616557
 46
-0.0000301753264278
 79
     2
 49
16.9871997833252
 49
-153.0128021240234
 53
345.9637145996322
 43
2663.341725042386
 44
-504.6814692167912
 45
41.23105625616557
 46
-0.0000301753264278
 79
     2
 49
12.74040031433105
 49
-157.2595977783203
 53
345.9637145996322
 43
2667.464928319974
 44
-507.7737696318303
 45
41.23105625616557
 46
-0.0000301753264278
 79
     2
 49
25.48080062866211
 49
-144.5191955566406
 98
        0
1001
ACAD
1010
2630.35692661099
1020
-533.5431692747746
1030
0.0
  0
LWPOLYLINE
  5
2BA
330
1F
100
AcDbEntity
  8
Sc.1_5
  6
Continuous
 62
     7
370
    15
390
5F
100
AcDbPolyline
 90
        5
 70
     0
 43
0.0
 10
2630.35692661099
 20
-533.5431692747746
 10
2732.475213153006
 20
-533.5431692747746
 10
2732.475213153006
 20
-509.543257084026
 10
2630.356926610991
 20
-509.543257084026
 10
2630.35692661099
 20
-533.5431692747746
  0
LINE
  5
2BB
330
1F
100
AcDbEntity
  8
Sc.1_5
  6
Continuous
 62
     7
370
    15
390
5F
100
AcDbLine
 10
2732.775212382533
 20
-454.7666635259473
 30
0.0
 11
2737.775212566317
 21
-452.2666637072525
 31
0.0
  0
LINE
  5
2BC
330
1F
100
AcDbEntity
  8
Sc.1_5
  6
Continuous
 62
     7
370
    15
390
5F
100
AcDbLine
 10
2737.775212566317
 20
-452.2666637072525
 30
0.0
 11
2727.775212635863
 21
-447.2666631956334
 31
0.0
  0
LINE
  5
2BD
330
1F
100
AcDbEntity
  8
Sc.1_5
  6
Continuous
 62
     7
370
    15
390
5F
100
AcDbLine
 10
2727.775212635863
 20
-447.2666631956334
 30
0.0
 11
2732.775212819648
 21
-444.7666633769358
 31
0.0
  0
LINE
  5
2BE
330
1F
100
AcDbEntity
  8
Sc.1_5
  6
Continuous
 62
     7
370
    15
390
5F
100
AcDbLine
 10
2732.775212819648
 20
-444.7666633769358
 30
0.0
 11
2732.775213545969
 21
-428.1503701554769
 31
0.0
  0
LINE
  5
2BF
330
1F
100
AcDbEntity
  8
Sc.1_5
  6
Continuous
 62
     7
370
    15
390
5F
100
AcDbLine
 10
2732.77521156816
 20
-473.3973384929919
 30
0.0
 11
2732.775212382533
 21
-454.7666635259473
 31
0.0
  0
LINE
  5
2C0
330
1F
100
AcDbEntity
  8
Sc.1_5
  6
Continuous
 62
     7
370
    15
390
5F
100
AcDbLine
 10
2732.475212934449
 20
-528.2936228260832
 30
0.0
 11
2737.475213118233
 21
-525.7936230073884
 31
0.0
  0
LINE
  5
2C1
330
1F
100
AcDbEntity
  8
Sc.1_5
  6
Continuous
 62
     7
370
    15
390
5F
100
AcDbLine
 10
2737.475213118233
 20
-525.7936230073884
 30
0.0
 11
2727.475213187779
 21
-520.7936224957692
 31
0.0
  0
LINE
  5
2C2
330
1F
100
AcDbEntity
  8
Sc.1_5
  6
Continuous
 62
     7
370
    15
390
5F
100
AcDbLine
 10
2727.475213187779
 20
-520.7936224957692
 30
0.0
 11
2732.475213371563
 21
-518.2936226770717
 31
0.0
  0
LINE
  5
2C3
330
1F
100
AcDbEntity
  8
Sc.1_5
  6
Continuous
 62
     7
370
    15
390
5F
100
AcDbLine
 10
2732.475213371563
 20
-518.2936226770717
 30
0.0
 11
2732.475214097884
 21
-501.6773294556128
 31
0.0
  0
LINE
  5
2C4
330
1F
100
AcDbEntity
  8
Sc.1_5
  6
Continuous
 62
     7
370
    15
390
5F
100
AcDbLine
 10
2732.475212120076
 20
-546.9242977931278
 30
0.0
 11
2732.475212934449
 21
-528.2936228260832
 31
0.0
  0
WIPEOUT
  5
2C5
330
1F
100
AcDbEntity
  8
Sc.1_5
  6
Continuous
390
5F
160
               176
310
B0000000040000000C0000000E000000120000000C00000016000000000000C20C0000001400000001000000840000000700000005000000ED679661F49BA440CB578B4525B180C00000000000000000ED679661F49BA4409729825EAA7D80C000000000000000003D20B5E6DF9AA44097DE00058B6D80C000000000000000
310
0090D8D36BCB99A4409729825EAA7D80C0000000000000000090D8D36BCB99A440CB578B4525B180C00000000000000000
100
AcDbWipeout
 90
        0
 10
2636.897307033716
 20
-534.1431990514915
 30
0.0
 11
8.450318414520098
 21
0.0
 31
0.0
 12
0.0
 22
8.450318414520098
 32
0.0
 13
1.0
 23
1.0
340
0
 70
     7
280
     1
281
    50
282
    50
283
     0
360
0
 71
     2
 91
        6
 14
-0.3721941651163547
 24
0.5
 14
-0.3721941651163547
 24
-0.2615110653554638
 14
-0.4360970825582058
 24
-0.5
 14
-0.5
 24
-0.2615110653554638
 14
-0.5
 24
0.5
 14
-0.3721941651163547
 24
0.5
290
     0
  0
LWPOLYLINE
  5
2C6
330
1F
100
AcDbEntity
  8
Sc.1_5
  6
Continuous
 62
     9
370
    20
390
5F
100
AcDbPolyline
 90
        6
 70
     0
 43
0.0
 38
548.639990234375
 39
-548.639990234375
 10
2637.977307033716
 20
-534.1431990514915
 10
2637.977307033716
 20
-527.7081880730574
 10
2637.437307033716
 20
-525.6928806369714
 10
2636.897307033716
 20
-527.7081880730574
 10
2636.897307033716
 20
-534.1431990514915
 10
2637.977307033716
 20
-534.1431990514915
  0
WIPEOUT
  5
2C7
330
1F
100
AcDbEntity
  8
Sc.1_5
  6
Continuous
390
5F
160
              3176
310
680C0000040000000C0000000E000000120000000C00000016000000000000C20C00000014000000010000003C0C00000700000082000000640615A1AB9DA440CB8726E54BBF80C00000000000000000A7C0EA21A19DA440B9CEF3BE5DBF80C000000000000000007602A19B969DA440F65726556FBF80C000000000000000
310
004002530E8C9DA44077AA90A780BF80C000000000000000009D081C7A819DA44074FC05B691BF80C00000000000000000027017DF769DA440DE335A80A2BF80C0000000000000000079A4603D6C9DA440CBE66106B3BF80C000000000000000005E231395619DA440EC5BF247C3BF80C00000000000000000177B4AE6569D
310
A440F78AE144D3BF80C00000000000000000CA4A22314C9DA440161D06FDE2BF80C000000000000000001942B675419DA440536D3770F2BF80C00000000000000000D82022B4369DA44000894D9E01C080C00000000000000000C7B681EC2B9DA4401C30218710C080C0000000000000000049E3F01E219DA440BBD58B2A1F
310
C080C000000000000000001C958B4B169DA4406BA067882DC080C0000000000000000012CA6D720B9DA440926A8FA03BC080C00000000000000000C58EB393009DA440D0C2DE7249C080C0000000000000000054FE78AFF59CA4405FEC31FF56C080C000000000000000001542DAC5EA9CA4406DDF654564C080C000000000
310
000000005391F3D6DF9CA4407549584571C080C00000000000000000FC30E1E2D49CA4409D8DE7FE7DC080C000000000000000005E73BFE9C99CA4400BC5F2718AC080C00000000000000000DDB7AAEBBE9CA44035BF599E96C080C00000000000000000A86ABFE8B39CA4403B02FD83A2C080C0000000000000000072041A
310
E1A89CA44033CBBD22AEC080C00000000000000000240AD7D49D9CA4407F0E7E7AB9C080C000000000000000009A0C13C4929CA4401578208BC4C080C0000000000000000053A8EAAE879CA440CB6B8854CFC080C0000000000000000029857A957C9CA440A6059AD6D9C080C000000000000000000656DF77719CA4401B1A
310
3A11E4C080C00000000000000000A0D83556669CA4405D364E04EEC080C0000000000000000025D59A305B9CA4409AA0BCAFF7C080C00000000000000000F71D2B07509CA44042586C1301C180C000000000000000005F8F03DA449CA4404816452F0AC180C00000000000000000430F41A9399CA4405E4D2F0313C180C000
310
00000000000000DE8C00752E9CA440332A148F1BC180C000000000000000006F005F3D239CA440AF93DDD223C180C00000000000000000F36A7902189CA4402C2B76CE2BC180C00000000000000000DAD56CC40C9CA440A94CC98133C180C00000000000000000B8525683019CA440080FC3EC3AC180C00000000000000000
310
01FB523FF69BA4403B44500F42C180C00000000000000000B1EF7FF8EA9BA44075795EE948C180C000000000000000001259FAAEDF9BA4405DF7DB7A4FC180C000000000000000006366DF62D49BA4403CC2B7C355C180C00000000000000000914D4C14C99BA440269AE1C35BC180C00000000000000000EC4A5EC3BD9BA4
310
4025FB497B61C180C00000000000000000DCA03270B29BA440631DE2E966C180C000000000000000009297E61AA79BA4404FF59B0F6CC180C00000000000000000C07C97C39B9BA440BF336AEC70C180C000000000000000004AA3626A909BA4401846408075C180C000000000000000000163650F859BA440675612CB79C1
310
80C000000000000000004C18BDB2799BA440884BD5CC7DC180C00000000000000000E62387546E9BA4403CC97E8581C180C000000000000000008EEAE0F4629BA440463005F584C180C00000000000000000B6D4E793579BA440849E5F1B88C180C00000000000000000454EB9314C9BA44008EF85F88AC180C00000000000
310
0000003CC672CE409BA44029BA708C8DC180C0000000000000000070AE316A359BA440995519D78FC180C00000000000000000427B13052A9BA44076D479D891C180C0000000000000000048A3359F1E9BA44056078D9093C180C000000000000000000F9FB538139BA4405D7C4EFF94C180C00000000000000000C3E8B0D1
310
079BA4403D7FBA2496C180C00000000000000000E8FB446AFC9AA4404819CE0097C180C000000000000000000D558F02F19AA4407411879397C180C000000000000000007F71AD9AE59AA44062ECE3DC97C180C00000000000000000FDCEBC32DA9AA44062ECE3DC97C180C000000000000000006FEBDACACE9AA440741187
310
9397C180C0000000000000000095442563C39AA4404819CE0097C180C00000000000000000BA57B9FBB79AA4403D7FBA2496C180C000000000000000006EA1B494AC9AA4405D7C4EFF94C180C00000000000000000349D342EA19AA44056078D9093C180C000000000000000003BC556C8959AA44076D479D891C180C00000
310
0000000000000C9238638A9AA440995519D78FC180C00000000000000000417AF7FE7E9AA44029BA708C8DC180C0000000000000000037F2B09B739AA44008EF85F88AC180C00000000000000000C66B8239689AA440849E5F1B88C180C00000000000000000EF5589D85C9AA440463005F584C180C0000000000000000096
310
1CE378519AA4403CC97E8581C180C000000000000000003028AD1A469AA440884BD5CC7DC180C000000000000000007BDD04BE3A9AA440675612CB79C180C00000000000000000329D07632F9AA4401846408075C180C00000000000000000BDC3D209249AA440BF336AEC70C180C00000000000000000EBA883B2189AA440
310
4FF59B0F6CC180C00000000000000000A09F375D0D9AA440631DE2E966C180C0000000000000000090F50B0A029AA44025FB497B61C180C00000000000000000EBF21DB9F699A440269AE1C35BC180C0000000000000000019DA8A6AEB99A4403CC2B7C355C180C000000000000000006AE76F1EE099A4405DF7DB7A4FC180
310
C00000000000000000CB50EAD4D499A44075795EE948C180C000000000000000007C45178EC999A4403B44500F42C180C00000000000000000C5ED134ABE99A440080FC3EC3AC180C00000000000000000A26AFD08B399A440A94CC98133C180C0000000000000000089D5F0CAA799A4402C2B76CE2BC180C0000000000000
310
00000D400B909C99A440AF93DDD223C180C000000000000000009EB369589199A440332A148F1BC180C00000000000000000393129248699A4405E4D2F0313C180C000000000000000001DB166F37A99A4404816452F0AC180C0000000000000000085223FC66F99A44042586C1301C180C00000000000000000576BCF9C64
310
99A4409AA0BCAFF7C080C00000000000000000DC6734775999A4405D364E04EEC080C0000000000000000076EA8A554E99A4401B1A3A11E4C080C0000000000000000054BBEF374399A440A6059AD6D9C080C000000000000000002A987F1E3899A440CB6B8854CFC080C00000000000000000E23357092D99A4401578208B
310
C4C080C00000000000000000583693F82199A4407F0E7E7AB9C080C000000000000000000A3C50EC1699A44033CBBD22AEC080C00000000000000000D5D5AAE40B99A4403B02FD83A2C080C000000000000000009F88BFE10099A44035BF599E96C080C000000000000000001FCDAAE3F598A4400BC5F2718AC080C0000000
310
0000000000800F89EAEA98A4409D8DE7FE7DC080C0000000000000000029AF76F6DF98A4407549584571C080C0000000000000000067FE8F07D598A4406DDF654564C080C000000000000000002942F11DCA98A4405FEC31FF56C080C00000000000000000B8B1B639BF98A440D0C2DE7249C080C000000000000000006B76
310
FC5AB498A440926A8FA03BC080C0000000000000000061ABDE81A998A4406BA067882DC080C00000000000000000335D79AE9E98A440BBD58B2A1FC080C00000000000000000B589E8E09398A4401C30218710C080C00000000000000000A41F48198998A44000894D9E01C080C0000000000000000063FEB3577E98A44053
310
6D3770F2BF80C00000000000000000B3F5479C7398A440161D06FDE2BF80C0000000000000000065C51FE76898A440F78AE144D3BF80C000000000000000001E1D57385E98A440EC5BF247C3BF80C00000000000000000049C09905398A440CBE66106B3BF80C000000000000000007BD052EE4898A440DE335A80A2BF80C0
310
0000000000000000DF374E533E98A44074FC05B691BF80C000000000000000003C3E17BF3398A44077AA90A780BF80C00000000000000000063EC9312998A440F65726556FBF80C00000000000000000D57F7FAB1E98A440B9CEF3BE5DBF80C00000000000000000183A552C1498A440CB8726E54BBF80C000000000000000
310
00
100
AcDbWipeout
 90
        0
 10
2636.03940073332
 20
-536.1991517836107
 30
0.0
 11
2.795812600792488
 21
0.0
 31
0.0
 12
0.0
 22
2.795812600792488
 32
0.0
 13
1.0
 23
1.0
340
0
 70
     7
280
     1
281
    50
282
    50
283
     0
360
0
 71
     2
 91
      131
 14
0.5
 24
0.3973129959181847
 14
0.4926670897342547
 24
0.400430588754773
 14
0.4853147419509014
 24
0.4035020607360025
 14
0.4779432467266815
 24
0.4065272906810264
 14
0.4705528948942401
 24
0.4095061592334446
 14
0.4631439780299615
 24
0.4124385488661062
 14
0.4557167884426008
 24
0.415324343885402
 14
0.4482716191619147
 24
0.418163430436266
 14
0.4408087639272935
 24
0.4209556965062689
 14
0.4333285171753687
 24
0.4237010319303636
 14
0.4258311740294403
 24
0.4263993283949787
 14
0.4183170302868575
 24
0.4290504794425374
 14
0.4107863824083324
 24
0.4316543804753792
 14
0.4032395275053204
 24
0.4342109287600806
 14
0.3956767633286518
 24
0.4367200234315192
 14
0.3880983882575038
 24
0.4391815654967104
 14
0.3805047012859859
 24
0.4415954578387868
 14
0.3728960020130216
 24
0.4439616052209203
 14
0.3652725906295018
 24
0.4462799142899314
 14
0.3576347679070295
 24
0.4485502935800127
 14
0.3499828351856422
 24
0.4507726535164522
 14
0.342317094361988
 24
0.4529469064190437
 14
0.334637847877616
 24
0.4550729665054973
 14
0.3269453987066981
 24
0.4571507498950211
 14
0.3192400503447743
 24
0.4591801746114186
 14
0.3115221067955645
 24
0.4611611605864994
 14
0.3037918725606232
 24
0.4630936296631489
 14
0.2960496526256975
 24
0.4649775055983412
 14
0.2882957524498124
 24
0.4668127140663501
 14
0.2805304779524249
 24
0.4685991826613929
 14
0.2727541355021685
 24
0.4703368409008704
 14
0.2649670319042343
 24
0.472025620227754
 14
0.2571694743883199
 24
0.473665454013485
 14
0.2493617705964652
 24
0.4752562775606748
 14
0.2415442285710014
 24
0.4767980281055486
 14
0.233717156742955
 24
0.4782906448203335
 14
0.2258808639186327
 24
0.4797340688159011
 14
0.2180356592683665
 24
0.4811282431438997
 14
0.210181852314463
 24
0.4824731127989992
 14
0.2023197529179015
 24
0.4837686247212218
 14
0.1944496712677619
 24
0.4850147277979033
 14
0.1865719178670133
 24
0.4862113728656823
 14
0.178686803522055
 24
0.4873585127125182
 14
0.1707946393295288
 24
0.4884561020796241
 14
0.1628957366641544
 24
0.4895040976630582
 14
0.1549904071664514
 24
0.490502458115543
 14
0.1470789627308022
 24
0.4914511440480851
 14
0.1391617154921505
 24
0.4923501180316237
 14
0.131238977815201
 24
0.4931993445982812
 14
0.1233110622806635
 24
0.4939987902430403
 14
0.1153782816741113
 24
0.4947484234247668
 14
0.1074409489723394
 24
0.4954482145677446
 14
0.0994993773325632
 24
0.496098136062642
 14
0.0915538800786635
 24
0.4966981622677054
 14
0.0836047706892487
 24
0.4972482695096119
 14
0.0756523627862862
 24
0.4977484360847484
 14
0.0676969701208918
 24
0.4981986422596378
 14
0.059738906562643
 24
0.4985988702720192
 14
0.0517784860861639
 24
0.498949104331416
 14
0.0438160227589606
 24
0.4992493306198185
 14
0.0358518307294844
 24
0.4994995372922517
 14
0.027886224214285
 24
0.4996997144771171
 14
0.0199195174856186
 24
0.4998498542766754
 14
0.0119520248592835
 24
0.4999499507673306
 14
0.0039840606817734
 24
0.5
 14
-0.0039840606816597
 24
0.5
 14
-0.0119520248591698
 24
0.4999499507673306
 14
-0.0199195174855049
 24
0.4998498542766754
 14
-0.0278862242141713
 24
0.4996997144771171
 14
-0.0358518307293707
 24
0.4994995372922517
 14
-0.0438160227588469
 24
0.4992493306198185
 14
-0.0517784860860502
 24
0.498949104331416
 14
-0.0597389065625293
 24
0.4985988702720192
 14
-0.0676969701207781
 24
0.4981986422596378
 14
-0.0756523627861725
 24
0.4977484360847484
 14
-0.0836047706892487
 24
0.4972482695096119
 14
-0.0915538800785498
 24
0.4966981622677054
 14
-0.0994993773324495
 24
0.496098136062642
 14
-0.1074409489723394
 24
0.4954482145677446
 14
-0.1153782816739977
 24
0.4947484234247668
 14
-0.1233110622805498
 24
0.4939987902430403
 14
-0.1312389778150873
 24
0.4931993445982812
 14
-0.1391617154920368
 24
0.4923501180316237
 14
-0.1470789627306885
 24
0.4914511440480851
 14
-0.1549904071664514
 24
0.490502458115543
 14
-0.1628957366641544
 24
0.4895040976630582
 14
-0.1707946393295288
 24
0.4884561020796241
 14
-0.1786868035219413
 24
0.4873585127125182
 14
-0.1865719178668996
 24
0.4862113728656823
 14
-0.1944496712676482
 24
0.4850147277979033
 14
-0.2023197529177878
 24
0.4837686247212218
 14
-0.2101818523143493
 24
0.4824731127989992
 14
-0.2180356592683665
 24
0.4811282431438997
 14
-0.225880863918519
 24
0.4797340688159011
 14
-0.2337171567428413
 24
0.4782906448203335
 14
-0.2415442285708878
 24
0.4767980281055486
 14
-0.2493617705963516
 24
0.4752562775606748
 14
-0.2571694743882063
 24
0.473665454013485
 14
-0.2649670319042343
 24
0.472025620227754
 14
-0.2727541355021685
 24
0.4703368409008704
 14
-0.2805304779523112
 24
0.4685991826613929
 14
-0.2882957524496987
 24
0.4668127140663501
 14
-0.2960496526255838
 24
0.4649775055983412
 14
-0.3037918725605095
 24
0.4630936296631489
 14
-0.3115221067955645
 24
0.4611611605864994
 14
-0.3192400503446606
 24
0.4591801746114186
 14
-0.3269453987065845
 24
0.4571507498950211
 14
-0.3346378478775023
 24
0.4550729665054973
 14
-0.3423170943618743
 24
0.4529469064190437
 14
-0.3499828351856422
 24
0.4507726535164522
 14
-0.3576347679070295
 24
0.4485502935800127
 14
-0.3652725906293881
 24
0.4462799142899314
 14
-0.372896002012908
 24
0.4439616052209203
 14
-0.3805047012858722
 24
0.4415954578387868
 14
-0.3880983882573901
 24
0.4391815654967104
 14
-0.3956767633285381
 24
0.4367200234315192
 14
-0.4032395275052068
 24
0.4342109287600806
 14
-0.4107863824082187
 24
0.4316543804753792
 14
-0.4183170302868575
 24
0.4290504794425374
 14
-0.4258311740293266
 24
0.4263993283949787
 14
-0.433328517175255
 24
0.4237010319303636
 14
-0.4408087639271798
 24
0.4209556965062689
 14
-0.4482716191619147
 24
0.418163430436266
 14
-0.4557167884424871
 24
0.415324343885402
 14
-0.4631439780298479
 24
0.4124385488661062
 14
-0.4705528948941264
 24
0.4095061592334446
 14
-0.4779432467266815
 24
0.4065272906810264
 14
-0.4853147419509014
 24
0.4035020607360025
 14
-0.492667089734141
 24
0.400430588754773
 14
-0.5
 24
0.3973129959181847
 14
0.5
 24
0.3973129959181847
290
     0
  0
LWPOLYLINE
  5
2C8
330
1F
100
AcDbEntity
  8
Sc.1_5
  6
Continuous
 62
     9
370
    20
390
5F
100
AcDbPolyline
 90
        3
 70
     0
 43
0.0
 38
548.639990234375
 39
-548.639990234375
 10
2638.835213334112
 20
-535.9120581636611
 42
-0.2053865205643541
 10
2636.03940073332
 20
-535.9120581636611
 10
2638.835213334112
 20
-535.9120581636611
  0
WIPEOUT
  5
2C9
330
1F
100
AcDbEntity
  8
Sc.1_5
  6
Continuous
390
5F
160
               152
310
98000000040000000C0000000E000000120000000C00000016000000000000C20C00000014000000010000006C00000007000000040000000AED81B3AC9EA440CB8726E54BBF80C000000000000000007053E8191397A440CB8726E54BBF80C000000000000000007053E8191397A4406494BB02F2BD80C000000000000000
310
000AED81B3AC9EA4406494BB02F2BD80C00000000000000000
100
AcDbWipeout
 90
        0
 10
2635.537307033715
 20
-535.9120581636611
 30
0.0
 11
3.800000000000182
 21
0.0
 31
0.0
 12
0.0
 22
3.800000000000182
 32
0.0
 13
1.0
 23
1.0
340
0
 70
     7
280
     1
281
    50
282
    50
283
     0
360
0
 71
     2
 91
        5
 14
0.5
 24
0.5
 14
-0.5
 24
0.5
 14
-0.5
 24
0.4555555555561739
 14
0.5
 24
0.4555555555561739
 14
0.5
 24
0.5
290
     0
  0
LWPOLYLINE
  5
2CA
330
1F
100
AcDbEntity
  8
Sc.1_5
  6
Continuous
 62
     9
370
    20
390
5F
100
AcDbPolyline
 90
        5
 70
     0
 43
0.0
 38
548.639990234375
 39
-548.639990234375
 10
2639.337307033716
 20
-535.9120581636611
 10
2635.537307033715
 20
-535.9120581636611
 10
2635.537307033715
 20
-535.7431692747746
 10
2639.337307033716
 20
-535.7431692747746
 10
2639.337307033716
 20
-535.9120581636611
  0
WIPEOUT
  5
2CB
330
1F
100
AcDbEntity
  8
Sc.1_5
  6
Continuous
390
5F
160
               200
310
C8000000040000000C0000000E000000120000000C00000016000000000000C20C00000014000000010000009C000000070000000600000098AF77DC089CA440CBABABEC74B680C0000000000000000028726D05659CA440CB26E81726BA80C0000000000000000028726D05659CA4406494BB02F2BD80C000000000000000
310
0052CEFCC75A99A4406494BB02F2BD80C0000000000000000052CEFCC75A99A440CB26E81726BA80C00000000000000000DF90F2F0B699A440CBABABEC74B680C00000000000000000
100
AcDbWipeout
 90
        0
 10
2636.677307033716
 20
-535.7431692747746
 30
0.0
 11
1.519999999999527
 21
0.0
 31
0.0
 12
0.0
 22
1.519999999999527
 32
0.0
 13
1.0
 23
1.0
340
0
 70
     7
280
     1
281
    50
282
    50
283
     0
360
0
 71
     2
 91
        7
 14
0.3815789473680979
 24
-0.1158402871371322
 14
0.5
 24
0.1877835601365518
 14
0.5
 24
0.5
 14
-0.5
 24
0.5
 14
-0.5
 24
0.1877835601365518
 14
-0.3815789473690074
 24
-0.1158402871371322
 14
0.3815789473680979
 24
-0.1158402871371322
290
     0
  0
LWPOLYLINE
  5
2CC
330
1F
100
AcDbEntity
  8
Sc.1_5
  6
Continuous
 62
     9
370
    20
390
5F
100
AcDbPolyline
 90
        7
 70
     0
 43
0.0
 38
548.639990234375
 39
-548.639990234375
 10
2638.017307033715
 20
-534.8070920383265
 10
2638.197307033715
 20
-535.2686002861823
 10
2638.197307033715
 20
-535.7431692747746
 10
2636.677307033716
 20
-535.7431692747746
 10
2636.677307033716
 20
-535.2686002861823
 10
2636.857307033715
 20
-534.8070920383265
 10
2638.017307033715
 20
-534.8070920383265
  0
WIPEOUT
  5
2CD
330
1F
100
AcDbEntity
  8
Sc.1_5
  6
Continuous
390
5F
160
               152
310
98000000040000000C0000000E000000120000000C00000016000000000000C20C00000014000000010000006C000000070000000400000098AF77DC089CA440CB578B4525B180C0000000000000000098AF77DC089CA440CBABABEC74B680C00000000000000000E090F2F0B699A440CBABABEC74B680C000000000000000
310
00E090F2F0B699A440CB578B4525B180C00000000000000000
100
AcDbWipeout
 90
        0
 10
2636.857307033715
 20
-534.8070920383265
 30
0.0
 11
1.159999999999854
 21
0.0
 31
0.0
 12
0.0
 22
1.159999999999854
 32
0.0
 13
1.0
 23
1.0
340
0
 70
     7
280
     1
281
    50
282
    50
283
     0
360
0
 71
     2
 91
        5
 14
0.5
 24
-0.0723215403750146
 14
0.5
 24
0.5
 14
-0.5
 24
0.5
 14
-0.5
 24
-0.0723215403750146
 14
0.5
 24
-0.0723215403750146
290
     0
  0
LWPOLYLINE
  5
2CE
330
1F
100
AcDbEntity
  8
Sc.1_5
  6
Continuous
 62
     9
370
    20
390
5F
100
AcDbPolyline
 90
        5
 70
     0
 43
0.0
 38
548.639990234375
 39
-548.639990234375
 10
2638.017307033715
 20
-534.1431990514915
 10
2638.017307033715
 20
-534.8070920383265
 10
2636.857307033715
 20
-534.8070920383265
 10
2636.857307033715
 20
-534.1431990514915
 10
2638.017307033715
 20
-534.1431990514915
  0
WIPEOUT
  5
2CF
330
1F
100
AcDbEntity
  8
Sc.1_5
  6
Continuous
390
5F
160
               248
310
F8000000040000000C0000000E000000120000000C00000016000000000000C20C0000001400000001000000CC0000000700000008000000A2861B4D4699A440FE8B88692FAE80C00000000000000000A2861B4D4699A4403167D5D03DAE80C000000000000000006DBED6ADEB99A440FE3A67FCD9AF80C000000000000000
310
007D39806BBB9BA440CB578B4525B180C00000000000000000D7B94E80799CA440CB6D73327AB080C00000000000000000D7B94E80799CA440CB9226CB6BB080C00000000000000000F7A06473B29BA440FE4AB27ED0AE80C00000000000000000CD440540229AA440CB9ED099B2AD80C00000000000000000
100
AcDbWipeout
 90
        0
 10
2636.637307033715
 20
-534.1431990514915
 30
0.0
 11
1.600000000000819
 21
0.0
 31
0.0
 12
0.0
 22
1.600000000000819
 32
0.0
 13
1.0
 23
1.0
340
0
 70
     7
280
     1
281
    50
282
    50
283
     0
360
0
 71
     2
 91
        9
 14
-0.4999999999997726
 24
0.2687196601365258
 14
-0.4999999999997726
 24
0.2731152645320662
 14
-0.2981227334971663
 24
0.3988996254630024
 14
0.2679671924308877
 24
0.5
 14
0.5000000000002274
 24
0.4477921802827609
 14
0.5000000000002274
 24
0.4433965758908585
 14
0.2570184972666993
 24
0.317878189263979
 14
-0.2315077159023531
 24
0.2306302435574139
 14
-0.4999999999997726
 24
0.2687196601365258
290
     0
  0
LWPOLYLINE
  5
2D0
330
1F
100
AcDbEntity
  8
Sc.1_5
  6
Continuous
 62
     9
370
    20
390
5F
100
AcDbPolyline
 90
        9
 70
     0
 43
0.0
 38
548.639990234375
 39
-548.639990234375
 10
2636.637307033715
 20
-533.7731505077097
 10
2636.637307033715
 20
-533.7801834747426
 10
2636.960310660119
 20
-533.9814384522322
 10
2637.866054541605
 20
-534.1431990514915
 10
2638.237307033716
 20
-534.0596665399438
 10
2638.237307033716
 20
-534.0526335729168
 10
2637.848536629342
 20
-533.8518041543136
 10
2637.066894688271
 20
-533.7122074411831
 10
2636.637307033715
 20
-533.7731505077097
  0
WIPEOUT
  5
2D1
330
1F
100
AcDbEntity
  8
Sc.1_5
  6
Continuous
390
5F
160
               248
310
F8000000040000000C0000000E000000120000000C00000016000000000000C20C0000001400000001000000CC0000000700000008000000A2861B4D4699A44097AB80EB4EA680C00000000000000000A2861B4D4699A440CB86CD525DA680C000000000000000006DBED6ADEB99A440975A5F7EF9A780C000000000000000
310
007D39806BBB9BA440307783C744A980C00000000000000000D7B94E80799CA440638D6BB499A880C00000000000000000D7B94E80799CA44031B21E4D8BA880C00000000000000000F7A06473B29BA440646AAA00F0A680C00000000000000000CD440540229AA44031BEC81BD2A580C00000000000000000
100
AcDbWipeout
 90
        0
 10
2636.637307033715
 20
-533.1585836668729
 30
0.0
 11
1.600000000000819
 21
0.0
 31
0.0
 12
0.0
 22
1.600000000000819
 32
0.0
 13
1.0
 23
1.0
340
0
 70
     7
280
     1
281
    50
282
    50
283
     0
360
0
 71
     2
 91
        9
 14
-0.4999999999997726
 24
0.268719660140107
 14
-0.4999999999997726
 24
0.2731152645357042
 14
-0.2981227334971663
 24
0.3988996254665835
 14
0.2679671924308877
 24
0.4999999999999432
 14
0.5000000000002274
 24
0.4477921802862852
 14
0.5000000000002274
 24
0.4433965758908016
 14
0.2570184972666993
 24
0.3178781892639222
 14
-0.2315077159023531
 24
0.2306302435573571
 14
-0.4999999999997726
 24
0.268719660140107
290
     0
  0
LWPOLYLINE
  5
2D2
330
1F
100
AcDbEntity
  8
Sc.1_5
  6
Continuous
 62
     9
370
    20
390
5F
100
AcDbPolyline
 90
        9
 70
     0
 43
0.0
 38
548.639990234375
 39
-548.639990234375
 10
2636.637307033715
 20
-532.788535123097
 10
2636.637307033715
 20
-532.7955680901299
 10
2636.960310660119
 20
-532.9968230676194
 10
2637.866054541605
 20
-533.1585836668729
 10
2638.237307033716
 20
-533.075051155331
 10
2638.237307033716
 20
-533.0680181882982
 10
2637.848536629342
 20
-532.8671887696951
 10
2637.066894688271
 20
-532.7275920565645
 10
2636.637307033715
 20
-532.788535123097
  0
WIPEOUT
  5
2D3
330
1F
100
AcDbEntity
  8
Sc.1_5
  6
Continuous
390
5F
160
               248
310
F8000000040000000C0000000E000000120000000C00000016000000000000C20C0000001400000001000000CC0000000700000008000000A2861B4D4699A440FECA786D6E9E80C00000000000000000A2861B4D4699A44031A6C5D47C9E80C000000000000000006DBED6ADEB99A440FE79570019A080C000000000000000
310
007D39806BBB9BA440CB967B4964A180C00000000000000000D7B94E80799CA440CBAC6336B9A080C00000000000000000D7B94E80799CA440CBD116CFAAA080C00000000000000000F7A06473B29BA440FE89A2820F9F80C00000000000000000CD440540229AA440CBDDC09DF19D80C00000000000000000
100
AcDbWipeout
 90
        0
 10
2636.637307033715
 20
-532.1739682822603
 30
0.0
 11
1.600000000000819
 21
0.0
 31
0.0
 12
0.0
 22
1.600000000000819
 32
0.0
 13
1.0
 23
1.0
340
0
 70
     7
280
     1
281
    50
282
    50
283
     0
360
0
 71
     2
 91
        9
 14
-0.4999999999997726
 24
0.2687196601365258
 14
-0.4999999999997726
 24
0.2731152645320662
 14
-0.2981227334971663
 24
0.3988996254630024
 14
0.2679671924308877
 24
0.5
 14
0.5000000000002274
 24
0.4477921802827609
 14
0.5000000000002274
 24
0.4433965758908585
 14
0.2570184972666993
 24
0.317878189263979
 14
-0.2315077159023531
 24
0.2306302435574139
 14
-0.4999999999997726
 24
0.2687196601365258
290
     0
  0
LWPOLYLINE
  5
2D4
330
1F
100
AcDbEntity
  8
Sc.1_5
  6
Continuous
 62
     9
370
    20
390
5F
100
AcDbPolyline
 90
        9
 70
     0
 43
0.0
 38
548.639990234375
 39
-548.639990234375
 10
2636.637307033715
 20
-531.8039197384785
 10
2636.637307033715
 20
-531.8109527055113
 10
2636.960310660119
 20
-532.012207683001
 10
2637.866054541605
 20
-532.1739682822603
 10
2638.237307033716
 20
-532.0904357707126
 10
2638.237307033716
 20
-532.0834028036855
 10
2637.848536629342
 20
-531.8825733850824
 10
2637.066894688271
 20
-531.7429766719519
 10
2636.637307033715
 20
-531.8039197384785
  0
WIPEOUT
  5
2D5
330
1F
100
AcDbEntity
  8
Sc.1_5
  6
Continuous
390
5F
160
               248
310
F8000000040000000C0000000E000000120000000C00000016000000000000C20C0000001400000001000000CC0000000700000008000000A2861B4D4699A440CAC5BD569C9680C00000000000000000A2861B4D4699A440FEA00ABEAA9680C000000000000000006DBED6ADEB99A440CA749CE9469880C000000000000000
310
007D39806BBB9BA4406391C032929980C00000000000000000D7B94E80799CA44096A7A81FE79880C00000000000000000D7B94E80799CA44064CC5BB8D89880C00000000000000000F7A06473B29BA4409684E76B3D9780C00000000000000000CD440540229AA44063D805871F9680C00000000000000000
100
AcDbWipeout
 90
        0
 10
2636.637307033715
 20
-531.1963858646745
 30
0.0
 11
1.600000000000819
 21
0.0
 31
0.0
 12
0.0
 22
1.600000000000819
 32
0.0
 13
1.0
 23
1.0
340
0
 70
     7
280
     1
281
    50
282
    50
283
     0
360
0
 71
     2
 91
        9
 14
-0.4999999999997726
 24
0.2687196601401638
 14
-0.4999999999997726
 24
0.2731152645357042
 14
-0.2981227334971663
 24
0.3988996254666404
 14
0.2679671924308877
 24
0.4999999999999432
 14
0.5000000000002274
 24
0.4477921802862852
 14
0.5000000000002274
 24
0.4433965758908016
 14
0.2570184972666993
 24
0.3178781892638654
 14
-0.2315077159023531
 24
0.2306302435573002
 14
-0.4999999999997726
 24
0.2687196601401638
290
     0
  0
LWPOLYLINE
  5
2D6
330
1F
100
AcDbEntity
  8
Sc.1_5
  6
Continuous
 62
     9
370
    20
390
5F
100
AcDbPolyline
 90
        9
 70
     0
 43
0.0
 38
548.639990234375
 39
-548.639990234375
 10
2636.637307033715
 20
-530.8263373208987
 10
2636.637307033715
 20
-530.8333702879315
 10
2636.960310660119
 20
-531.0346252654211
 10
2637.866054541605
 20
-531.1963858646745
 10
2638.237307033716
 20
-531.1128533531327
 10
2638.237307033716
 20
-531.1058203860998
 10
2637.848536629342
 20
-530.9049909674967
 10
2637.066894688271
 20
-530.7653942543661
 10
2636.637307033715
 20
-530.8263373208987
  0
WIPEOUT
  5
2D7
330
1F
100
AcDbEntity
  8
Sc.1_5
  6
Continuous
390
5F
160
               248
310
F8000000040000000C0000000E000000120000000C00000016000000000000C20C0000001400000001000000CC0000000700000008000000A2861B4D4699A44031E5B5D8BB8E80C00000000000000000A2861B4D4699A44064C00240CA8E80C000000000000000006DBED6ADEB99A4403194946B669080C000000000000000
310
007D39806BBB9BA440FEB0B8B4B19180C00000000000000000D7B94E80799CA440FEC6A0A1069180C00000000000000000D7B94E80799CA440FEEB533AF89080C00000000000000000F7A06473B29BA44031A4DFED5C8F80C00000000000000000CD440540229AA440FEF7FD083F8E80C00000000000000000
100
AcDbWipeout
 90
        0
 10
2636.637307033715
 20
-530.2117704800619
 30
0.0
 11
1.600000000000819
 21
0.0
 31
0.0
 12
0.0
 22
1.600000000000819
 32
0.0
 13
1.0
 23
1.0
340
0
 70
     7
280
     1
281
    50
282
    50
283
     0
360
0
 71
     2
 91
        9
 14
-0.4999999999997726
 24
0.2687196601365258
 14
-0.4999999999997726
 24
0.2731152645320662
 14
-0.2981227334971663
 24
0.3988996254630024
 14
0.2679671924308877
 24
0.5
 14
0.5000000000002274
 24
0.4477921802827609
 14
0.5000000000002274
 24
0.4433965758908585
 14
0.2570184972666993
 24
0.3178781892639222
 14
-0.2315077159023531
 24
0.2306302435573571
 14
-0.4999999999997726
 24
0.2687196601365258
290
     0
  0
LWPOLYLINE
  5
2D8
330
1F
100
AcDbEntity
  8
Sc.1_5
  6
Continuous
 62
     9
370
    20
390
5F
100
AcDbPolyline
 90
        9
 70
     0
 43
0.0
 38
548.639990234375
 39
-548.639990234375
 10
2636.637307033715
 20
-529.8417219362801
 10
2636.637307033715
 20
-529.848754903313
 10
2636.960310660119
 20
-530.0500098808026
 10
2637.866054541605
 20
-530.2117704800619
 10
2638.237307033716
 20
-530.1282379685142
 10
2638.237307033716
 20
-530.1212050014872
 10
2637.848536629342
 20
-529.920375582884
 10
2637.066894688271
 20
-529.7807788697535
 10
2636.637307033715
 20
-529.8417219362801
  0
WIPEOUT
  5
2D9
330
1F
100
AcDbEntity
  8
Sc.1_5
  6
Continuous
390
5F
160
               248
310
F8000000040000000C0000000E000000120000000C00000016000000000000C20C0000001400000001000000CC0000000700000008000000A2861B4D4699A4409704AE5ADB8680C00000000000000000A2861B4D4699A440CBDFFAC1E98680C000000000000000006DBED6ADEB99A44097B38CED858880C000000000000000
310
007D39806BBB9BA44064D0B036D18980C00000000000000000D7B94E80799CA44064E69823268980C00000000000000000D7B94E80799CA440640B4CBC178980C00000000000000000F7A06473B29BA44097C3D76F7C8780C00000000000000000CD440540229AA4406417F68A5E8680C00000000000000000
100
AcDbWipeout
 90
        0
 10
2636.637307033715
 20
-529.2271550954433
 30
0.0
 11
1.600000000000819
 21
0.0
 31
0.0
 12
0.0
 22
1.600000000000819
 32
0.0
 13
1.0
 23
1.0
340
0
 70
     7
280
     1
281
    50
282
    50
283
     0
360
0
 71
     2
 91
        9
 14
-0.4999999999997726
 24
0.2687196601365258
 14
-0.4999999999997726
 24
0.2731152645321231
 14
-0.2981227334971663
 24
0.3988996254630024
 14
0.2679671924308877
 24
0.5
 14
0.5000000000002274
 24
0.4477921802827609
 14
0.5000000000002274
 24
0.4433965758908585
 14
0.2570184972666993
 24
0.3178781892639222
 14
-0.2315077159023531
 24
0.2306302435574139
 14
-0.4999999999997726
 24
0.2687196601365258
290
     0
  0
LWPOLYLINE
  5
2DA
330
1F
100
AcDbEntity
  8
Sc.1_5
  6
Continuous
 62
     9
370
    20
390
5F
100
AcDbPolyline
 90
        9
 70
     0
 43
0.0
 38
548.639990234375
 39
-548.639990234375
 10
2636.637307033715
 20
-528.8571065516616
 10
2636.637307033715
 20
-528.8641395186945
 10
2636.960310660119
 20
-529.065394496184
 10
2637.866054541605
 20
-529.2271550954433
 10
2638.237307033716
 20
-529.1436225838956
 10
2638.237307033716
 20
-529.1365896168686
 10
2637.848536629342
 20
-528.9357601982655
 10
2637.066894688271
 20
-528.7961634851349
 10
2636.637307033715
 20
-528.8571065516616
  0
WIPEOUT
  5
2DB
330
1F
100
AcDbEntity
  8
Sc.1_5
  6
Continuous
390
5F
160
               248
310
F8000000040000000C0000000E000000120000000C00000016000000000000C20C0000001400000001000000CC0000000700000008000000A2861B4D4699A4403124A6DCFA7E80C00000000000000000A2861B4D4699A44065FFF243097F80C000000000000000006DBED6ADEB99A44031D3846FA58080C000000000000000
310
007D39806BBB9BA440CBEFA8B8F08180C00000000000000000D7B94E80799CA440FF0591A5458180C00000000000000000D7B94E80799CA440CB2A443E378180C00000000000000000F7A06473B29BA440FEE2CFF19B7F80C00000000000000000CD440540229AA440CB36EE0C7E7E80C00000000000000000
100
AcDbWipeout
 90
        0
 10
2636.637307033715
 20
-528.2425397108249
 30
0.0
 11
1.600000000000819
 21
0.0
 31
0.0
 12
0.0
 22
1.600000000000819
 32
0.0
 13
1.0
 23
1.0
340
0
 70
     7
280
     1
281
    50
282
    50
283
     0
360
0
 71
     2
 91
        9
 14
-0.4999999999997726
 24
0.2687196601401638
 14
-0.4999999999997726
 24
0.2731152645357042
 14
-0.2981227334971663
 24
0.3988996254666404
 14
0.2679671924308877
 24
0.5
 14
0.5000000000002274
 24
0.4477921802863989
 14
0.5000000000002274
 24
0.4433965758908585
 14
0.2570184972666993
 24
0.317878189263979
 14
-0.2315077159023531
 24
0.2306302435574139
 14
-0.4999999999997726
 24
0.2687196601401638
290
     0
  0
LWPOLYLINE
  5
2DC
330
1F
100
AcDbEntity
  8
Sc.1_5
  6
Continuous
 62
     9
370
    20
390
5F
100
AcDbPolyline
 90
        9
 70
     0
 43
0.0
 38
548.639990234375
 39
-548.639990234375
 10
2636.637307033715
 20
-527.8724911670489
 10
2636.637307033715
 20
-527.8795241340817
 10
2636.960310660119
 20
-528.0807791115714
 10
2637.866054541605
 20
-528.2425397108249
 10
2638.237307033716
 20
-528.159007199283
 10
2638.237307033716
 20
-528.1519742322502
 10
2637.848536629342
 20
-527.951144813647
 10
2637.066894688271
 20
-527.8115481005165
 10
2636.637307033715
 20
-527.8724911670489
  0
WIPEOUT
  5
2DD
330
1F
100
AcDbEntity
  8
Sc.1_5
  6
Continuous
390
5F
160
              3944
310
680F0000040000000C0000000E000000120000000C00000016000000000000C20C00000014000000010000003C0F000007000000A20000003D20B5E6DF9AA440328F0BB03B7880C000000000000000005722A84DDA9AA440E25510A5647880C0000000000000000006E406C5D49AA44080C2B9BD8D7880C000000000000000
310
005794DF4CCF9AA440E87E9EF9B67880C000000000000000001B3840E5C99AA440AADA5458E07880C00000000000000000C3A9368EC49AA44016CC72D9097980C000000000000000003F99D047BF9AA4404FF18D7C337980C00000000000000000DB8B1B12BA9AA44057913B415D7980C0000000000000000013DC24EDB49A
310
A440229D1027877980C0000000000000000083B9F9D8AF9AA440ACB0A12DB17980C00000000000000000B228A7D5AA9AA44009148354DB7980C00000000000000000FB023AE3A59AA4407BBC489B057A80C000000000000000006FF6BE01A19AA440804D8601307A80C00000000000000000A98542319C9AA440F619CF865A
310
7A80C00000000000000000BB07D171979AA4402125B62A857A80C0000000000000000003A876C3929AA440D023CEECAF7A80C0000000000000000013663F268E9AA4406D7DA9CCDA7A80C000000000000000009215379A899AA440184DDAC9057B80C00000000000000000175E691F859AA440C262F2E3307B80C000000000
310
0000000015BBE1B5809AA4404644831A5C7B80C00000000000000000B57BAB5D7C9AA440852E1E6D877B80C00000000000000000BFC2D116789AA440811654DBB27B80C0000000000000000078865FE1739AA4407CAAB564DE7B80C000000000000000008C905FBD6F9AA4401153D3080A7C80C00000000000000000EE7DDC
310
AA6B9AA44056343DC7357C80C00000000000000000BDBEE0A9679AA440F72E839F617C80C000000000000000002B9676BA639AA4405CE134918D7C80C00000000000000000651AA8DC5F9AA440C3A8E19BB97C80C000000000000000006F347F105C9AA4405DA218BFE57C80C0000000000000000018A00556589AA4407EAC
310
68FA117D80C00000000000000000DAEB44AD549AA440AE67604D3E7D80C00000000000000000BF784616519AA440D9378EB76A7D80C000000000000000004D7A13914D9AA44067458038977D80C0000000000000000074F6B41D4A9AA440687EC4CFC37D80C0000000000000000065C533BC469AA440BA97E87CF07D80C000
310
000000000000009391986C439AA440210E7A3F1D7E80C0000000000000000086D7EB2E409AA440792706174A7E80C00000000000000000D7E535033D9AA440DDF31903777E80C0000000000000000012DD7EE9399AA440C14E4203A47E80C000000000000000009FAFCEE1369AA44025E00B17D17E80C00000000000000000
310
B9212DEC339AA440BB1D033EFE7E80C0000000000000000049C9A108319AA440044CB4772B7F80C00000000000000000E50D34372E9AA4408C7FABC3587F80C00000000000000000AF28EB772B9AA440039E7421867F80C000000000000000004724CECA289AA4406B5F9B90B37F80C00000000000000000BCDCE32F269AA4
310
40454FAB10E17F80C0000000000000000076FF32A7239AA440BACD2FA10E8080C00000000000000000280BC230219AA440C510B4413C8080C00000000000000000C14F97CC1E9AA4405E25C3F1698080C0000000000000000051EEB87A1C9AA440A9F0E7B0978080C000000000000000000AD92C3B1A9AA4401C31AD7EC580
310
80C0000000000000000023D3F80D189AA440B57F9D5AF38080C00000000000000000CE7022F3159AA4401C514344218180C000000000000000002D17AFEA139AA440D8F6283B4F8180C000000000000000003DFCA3F4119AA44079A0D83E7D8180C00000000000000000D3260611109AA440C85CDC4EAB8180C00000000000
310
000000846EDA3F0E9AA440F41ABE6AD98180C000000000000000009B7B25810C9AA440C4AB0792078280C0000000000000000017C7EBD40A9AA440BDC242C4358280C00000000000000000949A313B099AA4405CF7F800648280C000000000000000004310FBB3079AA44042C6B347928280C00000000000000000E1124C3F
310
069AA4405D92FC97C08280C00000000000000000B05D28DD049AA44021A65CF1EE8280C00000000000000000647C938D039AA440B5345D531D8380C0000000000000000026CB9050029AA440235B87BD4B8380C0000000000000000081762326019AA4408821642F7A8380C00000000000000000607B4E0E009AA440477C7C
310
A8A88380C0000000000000000002A71409FF99A440394D5928D78380C00000000000000000FB967816FE99A440DF6483AE058480C0000000000000000023B97C36FD99A4409083833A348480C00000000000000000924B2369FC99A440B15AE2CB628480C00000000000000000A45C6EAEFB99A440E08D2862918480C00000
310
000000000000E6CA5F06FB99A44030B4DEFCBF8480C000000000000000001945F970FA99A4404C598D9BEE8480C000000000000000002E4A3CEEF999A440B7FEBC3D1D8580C0000000000000000040292A7EF999A440F61CF6E24B8580C000000000000000008F01C420F999A440C724C18A7A8580C0000000000000000082
310
C20AD6F899A4405080A634A98580C000000000000000009E2BFF9DF899A44057942EE0D78580C000000000000000008DCCA178F899A4406CC1E18C068680C000000000000000001305F365F899A4402165483A358680C000000000000000001305F365F899A44042DBEAE7638680C000000000000000008DCCA178F899A440
310
F77E5195928680C000000000000000009E2BFF9DF899A4400CAC0442C18680C0000000000000000082C20AD6F899A44012C08CEDEF8680C000000000000000008F01C420F999A4409D1B72971E8780C0000000000000000040292A7EF999A4406E233D3F4D8780C000000000000000002E4A3CEEF999A440AC4176E47B8780
310
C000000000000000001945F970FA99A44018E7A586AA8780C00000000000000000E6CA5F06FB99A440348C5425D98780C00000000000000000A45C6EAEFB99A44083B20AC0078880C00000000000000000924B2369FC99A440B3E55056368880C0000000000000000023B97C36FD99A440D4BCAFE7648880C0000000000000
310
0000FB967816FE99A44085DBAF73938880C0000000000000000002A71409FF99A4402AF3D9F9C18880C00000000000000000607B4E0E009AA4401CC4B679F08880C0000000000000000081762326019AA440DB1ECFF21E8980C0000000000000000026CB9050029AA44040E5AB644D8980C00000000000000000647C938D03
310
9AA440AE0BD6CE7B8980C00000000000000000B05D28DD049AA440429AD630AA8980C00000000000000000E1124C3F069AA44007AE368AD88980C000000000000000004310FBB3079AA440217A7FDA068A80C00000000000000000949A313B099AA44007493A21358A80C0000000000000000017C7EBD40A9AA440A77DF05D
310
638A80C000000000000000009B7B25810C9AA440A0942B90918A80C00000000000000000846EDA3F0E9AA4406E2575B7BF8A80C00000000000000000D3260611109AA4409BE356D3ED8A80C000000000000000003DFCA3F4119AA440EA9F5AE31B8B80C000000000000000002D17AFEA139AA4408C490AE7498B80C0000000
310
0000000000CE7022F3159AA44047EFEFDD778B80C0000000000000000023D3F80D189AA440ADC095C7A58B80C000000000000000000AD92C3B1A9AA440460F86A3D38B80C0000000000000000051EEB87A1C9AA440BB4F4B71018C80C00000000000000000C14F97CC1E9AA440061B70302F8C80C00000000000000000280B
310
C230219AA4409F2F7FE05C8C80C0000000000000000076FF32A7239AA440A97203818A8C80C00000000000000000BCDCE32F269AA4401EF18711B88C80C000000000000000004724CECA289AA440F8E09791E58C80C00000000000000000AF28EB772B9AA44061A2BE00138D80C00000000000000000E50D34372E9AA440D6
310
C0875E408D80C0000000000000000049C9A108319AA4405FF47EAA6D8D80C00000000000000000B9212DEC339AA440A92230E49A8D80C000000000000000009FAFCEE1369AA4403E60270BC88D80C0000000000000000012DD7EE9399AA440A1F1F01EF58D80C00000000000000000D7E535033D9AA440864C191F228E80C0
310
000000000000000086D7EB2E409AA440E9182D0B4F8E80C000000000000000009391986C439AA4404332B9E27B8E80C0000000000000000065C533BC469AA440AAA84AA5A88E80C0000000000000000074F6B41D4A9AA440FBC16E52D58E80C000000000000000004D7A13914D9AA440FDFAB2E9018F80C000000000000000
310
00BF784616519AA4408A08A56A2E8F80C00000000000000000DAEB44AD549AA440B4D8D2D45A8F80C0000000000000000018A00556589AA440E693CA27878F80C000000000000000006F347F105C9AA440069E1A63B38F80C00000000000000000651AA8DC5F9AA440A0975186DF8F80C000000000000000002B9676BA639A
310
A440075FFE900B9080C00000000000000000BDBEE0A9679AA4406B11B082379080C00000000000000000EE7DDCAA6B9AA4400E0CF65A639080C000000000000000008C905FBD6F9AA44052ED5F198F9080C0000000000000000078865FE1739AA440E7957DBDBA9080C00000000000000000BFC2D116789AA440E229DF46E6
310
9080C00000000000000000B57BAB5D7C9AA440DF1115B5119180C0000000000000000015BBE1B5809AA4401EFCAF073D9180C00000000000000000175E691F859AA440A1DD403E689180C000000000000000009215379A899AA4404BF35858939180C0000000000000000013663F268E9AA440F5C28955BE9180C000000000
310
0000000003A876C3929AA440931C6535E99180C00000000000000000BB07D171979AA440411B7DF7139280C00000000000000000A98542319C9AA4406D26649B3E9280C000000000000000006FF6BE01A19AA440E3F2AC20699280C00000000000000000FB023AE3A59AA440E983EA86939280C00000000000000000B228A7
310
D5AA9AA4405A2CB0CDBD9280C0000000000000000083B9F9D8AF9AA440B68F91F4E79280C0000000000000000013DC24EDB49AA44041A322FB119380C00000000000000000DB8B1B12BA9AA4400DAFF7E03B9380C000000000000000003F99D047BF9AA440134FA5A5659380C00000000000000000C3A9368EC49AA4404C74
310
C0488F9380C000000000000000001B3840E5C99AA440BA65DEC9B89380C000000000000000005794DF4CCF9AA4407CC19428E29380C0000000000000000006E406C5D49AA440E47D79640B9480C000000000000000005722A84DDA9AA44081EA227D349480C000000000000000003D20B5E6DF9AA44032B127725D9480C000
310
00000000000000
100
AcDbWipeout
 90
        0
 10
2636.985152811402
 20
-530.5456278897237
 30
0.0
 11
3.516483516490553
 21
0.0
 31
0.0
 12
0.0
 22
3.516483516490553
 32
0.0
 13
1.0
 23
1.0
340
0
 70
     7
280
     1
281
    50
282
    50
283
     0
360
0
 71
     2
 91
      163
 14
-0.3714186430298696
 24
-0.4999999999999716
 14
-0.3745278029327892
 24
-0.4943129021062589
 14
-0.3776013359193939
 24
-0.4886064712834184
 14
-0.3806391217815417
 24
-0.4828809307140887
 14
-0.3836410417092111
 24
-0.4771365043282003
 14
-0.38660697829539
 24
-0.4713734167943642
 14
-0.389536815539941
 24
-0.4655918935110037
 14
-0.3924304388548308
 24
-0.4597921605976296
 14
-0.3952877350686776
 24
-0.4539744448859437
 14
-0.3981085924302761
 24
-0.4481389739108863
 14
-0.4008929006139397
 24
-0.4422859759019389
 14
-0.4036405507237077
 24
-0.436415679773944
 14
-0.4063514352967559
 24
-0.4305283151184369
 14
-0.4090254483085118
 24
-0.4246241121943513
 14
-0.4116624851762936
 24
-0.4187033019193507
 14
-0.4142624427639703
 24
-0.4127661158604781
 14
-0.4168252193852595
 24
-0.4068127862252879
 14
-0.4193507148080471
 24
-0.4008435458527799
 14
-0.4218388302584799
 24
-0.3948586282041902
 14
-0.4242894684246039
 24
-0.3888582673538679
 14
-0.4267025334602295
 24
-0.3828426979802089
 14
-0.4290779309885693
 24
-0.3768121553564185
 14
-0.4314155681063312
 24
-0.3707668753412747
 14
-0.433715353386674
 24
-0.3647070943700328
 14
-0.4359771968834139
 24
-0.3586330494449612
 14
-0.4382010101343212
 24
-0.3525449781263603
 14
-0.4403867061644178
 24
-0.3464431185229842
 14
-0.442534199489387
 24
-0.3403277092828603
 14
-0.4446434061196669
 24
-0.3341989895840811
 14
-0.4467142435623828
 24
-0.3280571991251691
 14
-0.4487466308256671
 24
-0.3219025781159246
 14
-0.4507404884213884
 24
-0.3157353672679619
 14
-0.4526957383685613
 24
-0.3095558077852729
 14
-0.454612304195507
 24
-0.3033641413548764
 14
-0.4564901109445145
 24
-0.2971606101371265
 14
-0.4583290851727497
 24
-0.2909454567566456
 14
-0.4601291549570306
 24
-0.2847189242925197
 14
-0.4618902498951911
 24
-0.2784812562687762
 14
-0.4636123011093787
 24
-0.2722326966450908
 14
-0.4652952412492368
 24
-0.2659734898070667
 14
-0.4669390044934971
 24
-0.2597038805566854
 14
-0.4685435265537308
 24
-0.2534241141029554
 14
-0.4701087446755992
 24
-0.2471344360518799
 14
-0.4716345976424918
 24
-0.2408350923972762
 14
-0.4731210257772318
 24
-0.2345263295109703
 14
-0.474567970944463
 24
-0.2282083941331621
 14
-0.4759753765533787
 24
-0.2218815333627902
 14
-0.4773431875590859
 24
-0.2155459946478686
 14
-0.4786713504654472
 24
-0.209202025775852
 14
-0.4799598133273548
 24
-0.2028498748638299
 14
-0.4812085257518675
 24
-0.1964897903490055
 14
-0.4824174389010523
 24
-0.1901220209787198
 14
-0.4835865054935766
 24
-0.1837468158010154
 14
-0.484715679806186
 24
-0.177364424154689
 14
-0.4858049176763188
 24
-0.1709750956596281
 14
-0.4868541765027885
 24
-0.1645790802070053
 14
-0.487863415248512
 24
-0.1581766279495298
 14
-0.4888325944416465
 24
-0.1517679892916419
 14
-0.489761676176613
 24
-0.1453534148798212
 14
-0.4906506241163697
 24
-0.1389331555925821
 14
-0.4914994034936626
 24
-0.1325074625308105
 14
-0.4923079811121625
 24
-0.1260765870079581
 14
-0.4930763253476016
 24
-0.119640780540152
 14
-0.4938044061498204
 24
-0.1132002948363606
 14
-0.494492195042767
 24
-0.1067553817885312
 14
-0.4951396651266577
 24
-0.1003062934618129
 14
-0.4957467910784317
 24
-0.0938532820846376
 14
-0.4963135491531148
 24
-0.0873966000388577
 14
-0.4968399171841611
 24
-0.0809364998498836
 14
-0.4973258745849307
 24
-0.0744732341768781
 14
-0.4977714023495992
 24
-0.0680070558027239
 14
-0.4981764830529301
 24
-0.0615382176243031
 14
-0.4985411008520941
 24
-0.0550669726423791
 14
-0.4988652414866692
 24
-0.0485935739520187
 14
-0.499148892279095
 24
-0.0421182747324167
 14
-0.4993920421358098
 24
-0.0356413282371477
 14
-0.4995946815469097
 24
-0.0291629877841899
 14
-0.4997568025869441
 24
-0.0226835067460627
 14
-0.4998783989154845
 24
-0.0162031385398507
 14
-0.4999594657766693
 24
-0.0097221366173414
 14
-0.4999999999998863
 24
-0.0032407544551916
 14
-0.4999999999998863
 24
0.00324075445522
 14
-0.4999594657766693
 24
0.0097221366173699
 14
-0.4998783989154845
 24
0.0162031385398791
 14
-0.4997568025869441
 24
0.0226835067460911
 14
-0.4995946815469097
 24
0.0291629877842468
 14
-0.4993920421358098
 24
0.0356413282372046
 14
-0.499148892279095
 24
0.0421182747324451
 14
-0.4988652414866692
 24
0.0485935739520755
 14
-0.4985411008520941
 24
0.055066972642436
 14
-0.4981764830529301
 24
0.0615382176243315
 14
-0.4977714023495992
 24
0.0680070558027808
 14
-0.4973258745849307
 24
0.074473234176935
 14
-0.4968399171841611
 24
0.0809364998499404
 14
-0.4963135491531148
 24
0.0873966000388862
 14
-0.4957467910784317
 24
0.093853282084666
 14
-0.4951396651266577
 24
0.1003062934618413
 14
-0.494492195042767
 24
0.1067553817885596
 14
-0.4938044061498204
 24
0.113200294836389
 14
-0.4930763253476016
 24
0.1196407805401805
 14
-0.4923079811121625
 24
0.1260765870080149
 14
-0.4914994034936626
 24
0.1325074625308389
 14
-0.4906506241163697
 24
0.1389331555926105
 14
-0.489761676176613
 24
0.1453534148798781
 14
-0.4888325944416465
 24
0.1517679892916988
 14
-0.487863415248512
 24
0.1581766279495582
 14
-0.4868541765027885
 24
0.1645790802070337
 14
-0.4858049176763188
 24
0.1709750956596565
 14
-0.484715679806186
 24
0.1773644241547458
 14
-0.4835865054935766
 24
0.1837468158010438
 14
-0.4824174389010523
 24
0.1901220209787482
 14
-0.4812085257518675
 24
0.1964897903490339
 14
-0.4799598133273548
 24
0.2028498748638867
 14
-0.4786713504654472
 24
0.2092020257759089
 14
-0.4773431875590859
 24
0.2155459946479255
 14
-0.4759753765533787
 24
0.2218815333628186
 14
-0.474567970944463
 24
0.2282083941331905
 14
-0.4731210257772318
 24
0.2345263295109987
 14
-0.4716345976424918
 24
0.240835092397333
 14
-0.4701087446755992
 24
0.2471344360519083
 14
-0.4685435265537308
 24
0.2534241141029838
 14
-0.4669390044934971
 24
0.2597038805567422
 14
-0.4652952412492368
 24
0.2659734898070951
 14
-0.4636123011093787
 24
0.2722326966450908
 14
-0.4618902498951911
 24
0.2784812562688046
 14
-0.4601291549570306
 24
0.2847189242925481
 14
-0.4583290851727497
 24
0.2909454567567025
 14
-0.4564901109445145
 24
0.2971606101371833
 14
-0.454612304195507
 24
0.3033641413549049
 14
-0.4526957383685613
 24
0.3095558077853298
 14
-0.4507404884213884
 24
0.3157353672679903
 14
-0.4487466308256671
 24
0.321902578115953
 14
-0.4467142435623828
 24
0.3280571991252259
 14
-0.4446434061196669
 24
0.3341989895841095
 14
-0.442534199489387
 24
0.3403277092828887
 14
-0.4403867061644178
 24
0.3464431185230126
 14
-0.4382010101343212
 24
0.3525449781263887
 14
-0.4359771968834139
 24
0.3586330494450181
 14
-0.433715353386674
 24
0.3647070943700612
 14
-0.4314155681063312
 24
0.3707668753413031
 14
-0.4290779309885693
 24
0.376812155356447
 14
-0.4267025334602295
 24
0.3828426979802657
 14
-0.4242894684246039
 24
0.3888582673539247
 14
-0.4218388302584799
 24
0.3948586282042186
 14
-0.4193507148080471
 24
0.4008435458528083
 14
-0.4168252193852595
 24
0.4068127862253164
 14
-0.4142624427639703
 24
0.4127661158605065
 14
-0.4116624851762936
 24
0.4187033019193791
 14
-0.4090254483085118
 24
0.4246241121943797
 14
-0.4063514352967559
 24
0.4305283151184653
 14
-0.4036405507237077
 24
0.4364156797740009
 14
-0.4008929006139397
 24
0.4422859759019673
 14
-0.3981085924302761
 24
0.4481389739109147
 14
-0.3952877350686776
 24
0.4539744448859722
 14
-0.3924304388548308
 24
0.4597921605976865
 14
-0.389536815539941
 24
0.4655918935110321
 14
-0.38660697829539
 24
0.4713734167943926
 14
-0.3836410417092111
 24
0.4771365043282572
 14
-0.3806391217815417
 24
0.4828809307141455
 14
-0.3776013359193939
 24
0.4886064712834752
 14
-0.3745278029327892
 24
0.4943129021062873
 14
-0.3714186430298696
 24
0.5000000000000284
 14
-0.3714186430298696
 24
-0.4999999999999716
290
     0
  0
LWPOLYLINE
  5
2DE
330
1F
100
AcDbEntity
  8
Sc.1_5
  6
Continuous
 62
     9
370
    20
390
5F
100
AcDbPolyline
 90
        3
 70
     0
 43
0.0
 38
548.639990234375
 39
-548.639990234375
 10
2637.437307033716
 20
-527.0291443732332
 42
0.2571728475703041
 10
2637.437307033716
 20
-530.5456278897237
 10
2637.437307033716
 20
-527.0291443732332
  0
WIPEOUT
  5
2DF
330
1F
100
AcDbEntity
  8
Sc.1_5
  6
Continuous
390
5F
160
               248
310
F8000000040000000C0000000E000000120000000C00000016000000000000C20C0000001400000001000000CC0000000700000008000000011695B15D9CA440CB4349D90D7880C00000000000000000011695B15D9CA4409768FC71FF7780C0000000000000000023FDAAA4969BA440CB208825647680C000000000000000
310
00E6BC7C45689AA44097AAA3238C7580C00000000000000000BBFE92528C99A440FE975BF3087680C00000000000000000BBFE92528C99A4403173A85A177680C0000000000000000087364EB3319AA440FE463A86B37780C00000000000000000A895C69C9F9BA440CB2D61ECB87880C00000000000000000
100
AcDbWipeout
 90
        0
 10
2636.774067491145
 20
-527.0902946083164
 30
0.0
 11
1.408927979794498
 21
0.0
 31
0.0
 12
0.0
 22
1.408927979794498
 32
0.0
 13
1.0
 23
1.0
340
0
 70
     7
280
     1
281
    50
282
    50
283
     0
360
0
 71
     2
 91
        9
 14
0.5000000000002274
 24
0.4407120074655495
 14
0.5000000000002274
 24
0.4357202923929435
 14
0.2240665172757872
 24
0.2931797072934046
 14
-0.1950960867288813
 24
0.2183196995188723
 14
-0.4999999999997726
 24
0.2615746191503376
 14
-0.4999999999997726
 24
0.2665663342228868
 14
-0.2707451118596964
 24
0.4094089637794127
 14
0.2365000216941553
 24
0.5
 14
0.5000000000002274
 24
0.4407120074655495
290
     0
  0
LWPOLYLINE
  5
2E0
330
1F
100
AcDbEntity
  8
Sc.1_5
  6
Continuous
 62
     9
370
    20
390
5F
100
AcDbPolyline
 90
        9
 70
     0
 43
0.0
 38
548.639990234375
 39
-548.639990234375
 10
2638.182995470939
 20
-527.0067620967687
 10
2638.182995470939
 20
-526.9997291297358
 10
2637.794225066566
 20
-526.7988997111328
 10
2637.203655145701
 20
-526.6934273516116
 10
2636.774067491145
 20
-526.7543704181442
 10
2636.774067491145
 20
-526.761403385177
 10
2637.09707111755
 20
-526.9626583626666
 10
2637.811742978829
 20
-527.0902946083164
 10
2638.182995470939
 20
-527.0067620967687
  0
WIPEOUT
  5
2E1
330
1F
100
AcDbEntity
  8
Sc.1_5
  6
Continuous
390
5F
160
               176
310
B0000000040000000C0000000E000000120000000C00000016000000000000C20C00000014000000010000008400000007000000050000000702211F91A9A440C807A0A522CC7CC000000000000000000702211F91A9A44060AB8DD72C657CC0000000000000000059BA3FA47CA8A44060158B24EE447CC000000000000000
310
00AA725E2968A7A44060AB8DD72C657CC00000000000000000AA725E2968A7A440C807A0A522CC7CC00000000000000000
100
AcDbWipeout
 90
        0
 10
2643.703440619942
 20
-460.7584587336718
 30
0.0
 11
8.450318414520041
 21
0.0
 31
0.0
 12
0.0
 22
8.450318414520041
 32
0.0
 13
1.0
 23
1.0
340
0
 70
     7
280
     1
281
    50
282
    50
283
     0
360
0
 71
     2
 91
        6
 14
-0.3721941651162979
 24
0.5
 14
-0.3721941651162979
 24
-0.2615110653554638
 14
-0.4360970825580921
 24
-0.5
 14
-0.4999999999999432
 24
-0.2615110653554638
 14
-0.4999999999999432
 24
0.5
 14
-0.3721941651162979
 24
0.5
290
     0
  0
LWPOLYLINE
  5
2E2
330
1F
100
AcDbEntity
  8
Sc.1_5
  6
Continuous
 62
     9
370
    20
390
5F
100
AcDbPolyline
 90
        6
 70
     0
 43
0.0
 38
548.639990234375
 39
-548.639990234375
 10
2644.783440619943
 20
-460.7584587336718
 10
2644.783440619943
 20
-454.3234477552378
 10
2644.243440619943
 20
-452.3081403191518
 10
2643.703440619942
 20
-454.3234477552378
 10
2643.703440619942
 20
-460.7584587336718
 10
2644.783440619943
 20
-460.7584587336718
  0
WIPEOUT
  5
2E3
330
1F
100
AcDbEntity
  8
Sc.1_5
  6
Continuous
390
5F
160
              3176
310
680C0000040000000C0000000E000000120000000C00000016000000000000C20C00000014000000010000003C0C000007000000820000007EA09F5E48ABA440C667D6E46FE87CC00000000000000000C25A75DF3DABA440A2F5709893E87CC000000000000000008F9C2B5933ABA4401C08D6C4B6E87CC000000000000000
310
005A9CDDCB28ABA4401DADAA69D9E87CC00000000000000000B8A2A6371EABA44018519586FBE87CC000000000000000001C0AA29C13ABA440ECBF3D1B1DE97CC00000000000000000933EEBFA08ABA440C7254D273EE97CC0000000000000000078BD9D52FEAAA44008106EAA5EE97CC000000000000000003015D5A3F3AA
310
A4401C6E4CA47EE97CC00000000000000000E4E4ACEEE8AAA4405B9295149EE97CC0000000000000000032DC4033DEAAA440D632F8FABCE97CC00000000000000000F2BAAC71D3AAA4402F6A2457DBE97CC00000000000000000E0500CAAC8AAA44067B8CB28F9E97CC00000000000000000627D7BDCBDAAA440A703A16F16
310
EA7CC00000000000000000352F1609B3AAA4400599582B33EA7CC000000000000000002B64F82FA8AAA440522DA85B4FEA7CC00000000000000000DD283E519DAAA440CFDD46006BEA7CC000000000000000006D98036D92AAA440ED30ED1886EA7CC0000000000000000030DC648387AAA440081755A5A0EA7CC000000000
310
000000006D2B7E947CAAA44018EB39A5BAEA7CC0000000000000000016CB6BA071AAA4406B735818D4EA7CC00000000000000000790D4AA766AAA44046E26EFEECEA7CC00000000000000000F85135A95BAAA4409AD63C5705EB7CC00000000000000000C3044AA650AAA440A45C83221DEB7CC000000000000000008B9EA4
310
9E45AAA44096EE046034EB7CC000000000000000003EA461923AAAA4402E75850F4BEB7CC00000000000000000B5A69D812FAAA4405A48CA3061EB7CC000000000000000006C42756C24AAA440C62F9AC376EB7CC00000000000000000421F055319AAA4407B63BDC78BEB7CC0000000000000000020F069350EAAA440668C
310
FD3CA0EB7CC00000000000000000BA72C01303AAA440E9C42523B4EB7CC00000000000000000406F25EEF7A9A4406299027AC7EB7CC0000000000000000010B8B5C4ECA9A440B4086241DAEB7CC0000000000000000078298E97E1A9A440BF841379ECEB7CC000000000000000005EA9CB66D6A9A440ECF2E720FEEB7CC000
310
00000000000000F9268B32CBA9A44095ACB1380FEC7CC000000000000000008A9AE9FABFA9A4408D7F44C01FEC7CC000000000000000000E0504C0B4A9A44084AE75B72FEC7CC00000000000000000F46FF781A9A9A44081F11B1E3FEC7CC00000000000000000D3ECE0409EA9A44041760FF44DEC7CC00000000000000000
310
1A95DDFC92A9A440A5E029395CEC7CC00000000000000000CB890AB687A9A440194B46ED69EC7CC000000000000000002CF3846C7CA9A440EA46411077EC7CC000000000000000007E006A2071A9A440A8DCF8A183EC7CC00000000000000000ACE7D6D165A9A4407B8C4CA28FEC7CC0000000000000000007E5E8805AA9A4
310
407A4E1D119BEC7CC00000000000000000F63ABD2D4FA9A440F5924DEEA5EC7CC00000000000000000AB3171D843A9A440CD42C139B0EC7CC00000000000000000D916228138A9A440AEBF5DF3B9EC7CC00000000000000000643DED272DA9A4405FE4091BC3EC7CC000000000000000001BFDEFCC21A9A440FF04AEB0CBEC
310
7CC0000000000000000067B2477016A9A44041EF33B4D3EC7CC0000000000000000000BE11120BA9A440A8EA8625DBEC7CC00000000000000000A7846BB2FFA8A440BAB89304E2EC7CC00000000000000000D16E7251F4A8A44038954851E8EC7CC000000000000000005FE843EFE8A8A4403F36950BEEEC7CC00000000000
310
0000005560FD8BDDA8A44081CC6A33F3EC7CC000000000000000008A48BC27D2A8A4406003BCC8F7EC7CC000000000000000005A159EC2C6A8A4401A017DCBFBEC7CC00000000000000000623DC05CBBA8A440DC66A33BFFEC7CC000000000000000002A3940F6AFA8A440EA50261902ED7CC00000000000000000DE823B8F
310
A4A8A440A856FE6304ED7CC000000000000000000396CF2799A8A440BE8A251C06ED7CC0000000000000000027EF19C08DA8A440177B974107ED7CC00000000000000000990B385882A8A440F33051D407ED7CC00000000000000000176947F076A8A440F33051D407ED7CC00000000000000000898565886BA8A440177B97
310
4107ED7CC00000000000000000AFDEAF2060A8A440BE8A251C06ED7CC00000000000000000D4F143B954A8A440A856FE6304ED7CC00000000000000000883B3F5249A8A440EA50261902ED7CC000000000000000004E37BFEB3DA8A440DC66A33BFFEC7CC00000000000000000575FE18532A8A4401A017DCBFBEC7CC00000
310
000000000000262CC32027A8A4406003BCC8F7EC7CC000000000000000005B1482BC1BA8A44081CC6A33F3EC7CC00000000000000000518C3B5910A8A4403F36950BEEEC7CC00000000000000000E1050DF704A8A44038954851E8EC7CC0000000000000000009F01396F9A7A440BAB89304E2EC7CC00000000000000000B1
310
B66D36EEA7A440A8EA8625DBEC7CC000000000000000004AC237D8E2A7A44041EF33B4D3EC7CC0000000000000000095778F7BD7A7A440FF04AEB0CBEC7CC000000000000000004C379220CCA7A4405FE4091BC3EC7CC00000000000000000D75D5DC7C0A7A440AEBF5DF3B9EC7CC0000000000000000005430E70B5A7A440
310
CD42C139B0EC7CC00000000000000000BB39C21AAAA7A440F5924DEEA5EC7CC00000000000000000AA8F96C79EA7A4407A4E1D119BEC7CC00000000000000000058DA87693A7A4407B8C4CA28FEC7CC000000000000000003374152888A7A440A8DCF8A183EC7CC000000000000000008581FADB7CA7A440EA46411077EC7C
310
C00000000000000000E5EA749271A7A440194B46ED69EC7CC0000000000000000096DFA14B66A7A440A5E029395CEC7CC00000000000000000DF879E075BA7A44041760FF44DEC7CC00000000000000000BD0488C64FA7A44081F11B1E3FEC7CC00000000000000000A36F7B8844A7A44084AE75B72FEC7CC0000000000000
310
000028DA954D39A7A4408D7F44C01FEC7CC00000000000000000B94DF4152EA7A44095ACB1380FEC7CC0000000000000000054CBB3E122A7A440ECF2E720FEEB7CC00000000000000000384BF1B017A7A440BF841379ECEB7CC00000000000000000A0BCC9830CA7A440B4086241DAEB7CC0000000000000000071055A5A01
310
A7A4406299027AC7EB7CC00000000000000000F601BF34F6A6A440E9C42523B4EB7CC0000000000000000091841513EBA6A440668CFD3CA0EB7CC000000000000000006E557AF5DFA6A4407B63BDC78BEB7CC0000000000000000044320ADCD4A6A440C62F9AC376EB7CC00000000000000000FCCDE1C6C9A6A4405A48CA30
310
61EB7CC0000000000000000072D01DB6BEA6A4402E75850F4BEB7CC0000000000000000025D6DAA9B3A6A44096EE046034EB7CC00000000000000000EE6F35A2A8A6A440A45C83221DEB7CC00000000000000000BA224A9F9DA6A4409AD63C5705EB7CC00000000000000000386735A192A6A44046E26EFEECEA7CC0000000
310
00000000009AA913A887A6A4406B735818D4EA7CC00000000000000000434901B47CA6A44018EB39A5BAEA7CC0000000000000000082981AC571A6A440081755A5A0EA7CC0000000000000000043DC7BDB66A6A440ED30ED1886EA7CC00000000000000000D34B41F75BA6A440CFDD46006BEA7CC000000000000000008610
310
871851A6A440522DA85B4FEA7CC000000000000000007C45693F46A6A4400599582B33EA7CC000000000000000004EF7036C3BA6A440A703A16F16EA7CC00000000000000000D023739E30A6A44067B8CB28F9E97CC00000000000000000BFB9D2D625A6A4402F6A2457DBE97CC000000000000000007E983E151BA6A440D6
310
32F8FABCE97CC00000000000000000CC8FD25910A6A4405B9295149EE97CC00000000000000000815FAAA405A6A4401C6E4CA47EE97CC0000000000000000038B7E1F5FAA5A44008106EAA5EE97CC000000000000000001F36944DF0A5A440C7254D273EE97CC00000000000000000966ADDABE5A5A440ECBF3D1B1DE97CC0
310
0000000000000000F9D1D810DBA5A44018519586FBE87CC0000000000000000056D8A17CD0A5A4401DADAA69D9E87CC0000000000000000021D853EFC5A5A4401C08D6C4B6E87CC00000000000000000EF190A69BBA5A440A2F5709893E87CC0000000000000000033D4DFE9B0A5A440C667D6E46FE87CC000000000000000
310
00
100
AcDbWipeout
 90
        0
 10
2642.845534319547
 20
-462.814411465791
 30
0.0
 11
2.795812600792033
 21
0.0
 31
0.0
 12
0.0
 22
2.795812600792033
 32
0.0
 13
1.0
 23
1.0
340
0
 70
     7
280
     1
281
    50
282
    50
283
     0
360
0
 71
     2
 91
      131
 14
0.5000000000001137
 24
0.3973129959181563
 14
0.4926670897343683
 24
0.4004305887547446
 14
0.4853147419509014
 24
0.4035020607359741
 14
0.4779432467267952
 24
0.406527290680998
 14
0.4705528948943538
 24
0.4095061592334446
 14
0.4631439780299615
 24
0.4124385488660778
 14
0.4557167884426008
 24
0.415324343885402
 14
0.4482716191620284
 24
0.4181634304362376
 14
0.4408087639271798
 24
0.4209556965062404
 14
0.4333285171754824
 24
0.4237010319303351
 14
0.4258311740293266
 24
0.4263993283949787
 14
0.4183170302868575
 24
0.429050479442509
 14
0.4107863824082187
 24
0.4316543804753508
 14
0.4032395275052068
 24
0.4342109287600806
 14
0.3956767633286518
 24
0.4367200234314907
 14
0.3880983882573901
 24
0.4391815654966535
 14
0.3805047012858722
 24
0.4415954578387584
 14
0.3728960020130216
 24
0.4439616052208919
 14
0.3652725906296155
 24
0.446279914289903
 14
0.3576347679071432
 24
0.4485502935799843
 14
0.3499828351857559
 24
0.4507726535164522
 14
0.3423170943621017
 24
0.4529469064190152
 14
0.3346378478777297
 24
0.4550729665054973
 14
0.3269453987068118
 24
0.4571507498949927
 14
0.3192400503446606
 24
0.4591801746114186
 14
0.3115221067956782
 24
0.4611611605864994
 14
0.3037918725607369
 24
0.4630936296631489
 14
0.2960496526256975
 24
0.4649775055983412
 14
0.2882957524498124
 24
0.4668127140663216
 14
0.2805304779524249
 24
0.4685991826613929
 14
0.2727541355022822
 24
0.4703368409008419
 14
0.264967031904348
 24
0.4720256202276971
 14
0.2571694743882063
 24
0.4736654540134566
 14
0.2493617705963516
 24
0.4752562775606464
 14
0.2415442285711151
 24
0.4767980281055202
 14
0.2337171567430687
 24
0.478290644820305
 14
0.2258808639187464
 24
0.4797340688158727
 14
0.2180356592684802
 24
0.4811282431438428
 14
0.210181852314463
 24
0.4824731127989708
 14
0.2023197529180152
 24
0.4837686247212218
 14
0.1944496712677619
 24
0.4850147277978749
 14
0.1865719178670133
 24
0.4862113728656539
 14
0.178686803522055
 24
0.4873585127125182
 14
0.1707946393296425
 24
0.4884561020796241
 14
0.162895736664268
 24
0.4895040976630298
 14
0.1549904071665651
 24
0.4905024581155146
 14
0.1470789627306885
 24
0.4914511440480567
 14
0.1391617154921505
 24
0.4923501180315952
 14
0.131238977815201
 24
0.4931993445982812
 14
0.1233110622806635
 24
0.4939987902430119
 14
0.1153782816741113
 24
0.4947484234247668
 14
0.107440948972453
 24
0.4954482145677446
 14
0.0994993773325632
 24
0.496098136062642
 14
0.0915538800786635
 24
0.4966981622676485
 14
0.0836047706893623
 24
0.4972482695096119
 14
0.0756523627862862
 24
0.49774843608472
 14
0.0676969701208918
 24
0.4981986422596094
 14
0.059738906562643
 24
0.4985988702719624
 14
0.0517784860859365
 24
0.4989491043313876
 14
0.0438160227589606
 24
0.4992493306198185
 14
0.0358518307295981
 24
0.4994995372922517
 14
0.0278862242143987
 24
0.4996997144770603
 14
0.0199195174857323
 24
0.4998498542766185
 14
0.0119520248592835
 24
0.4999499507673306
 14
0.0039840606817734
 24
0.4999999999999716
 14
-0.0039840606816597
 24
0.4999999999999716
 14
-0.0119520248591698
 24
0.4999499507673306
 14
-0.0199195174855049
 24
0.4998498542766185
 14
-0.0278862242141713
 24
0.4996997144770603
 14
-0.0358518307293707
 24
0.4994995372922517
 14
-0.0438160227588469
 24
0.4992493306198185
 14
-0.0517784860858228
 24
0.4989491043313876
 14
-0.0597389065625293
 24
0.4985988702719624
 14
-0.0676969701207781
 24
0.4981986422596094
 14
-0.0756523627861725
 24
0.49774843608472
 14
-0.083604770689135
 24
0.4972482695096119
 14
-0.0915538800785498
 24
0.4966981622676485
 14
-0.0994993773324495
 24
0.496098136062642
 14
-0.1074409489723394
 24
0.4954482145677446
 14
-0.1153782816739977
 24
0.4947484234247668
 14
-0.1233110622805498
 24
0.4939987902430119
 14
-0.1312389778150873
 24
0.4931993445982812
 14
-0.1391617154920368
 24
0.4923501180315952
 14
-0.1470789627305749
 24
0.4914511440480567
 14
-0.1549904071664514
 24
0.4905024581155146
 14
-0.1628957366641544
 24
0.4895040976630298
 14
-0.1707946393295288
 24
0.4884561020796241
 14
-0.1786868035219413
 24
0.4873585127125182
 14
-0.1865719178668996
 24
0.4862113728656539
 14
-0.1944496712676482
 24
0.4850147277978749
 14
-0.2023197529177878
 24
0.4837686247212218
 14
-0.2101818523143493
 24
0.4824731127989708
 14
-0.2180356592683665
 24
0.4811282431438428
 14
-0.2258808639184053
 24
0.4797340688158727
 14
-0.2337171567428413
 24
0.478290644820305
 14
-0.2415442285708878
 24
0.4767980281055202
 14
-0.2493617705962379
 24
0.4752562775606464
 14
-0.2571694743880926
 24
0.4736654540134566
 14
-0.2649670319042343
 24
0.4720256202276971
 14
-0.2727541355021685
 24
0.4703368409008419
 14
-0.2805304779523112
 24
0.4685991826613929
 14
-0.2882957524496987
 24
0.4668127140663216
 14
-0.2960496526255838
 24
0.4649775055983412
 14
-0.3037918725606232
 24
0.4630936296631489
 14
-0.3115221067955645
 24
0.4611611605864994
 14
-0.3192400503445469
 24
0.4591801746114186
 14
-0.3269453987066981
 24
0.4571507498949927
 14
-0.3346378478775023
 24
0.4550729665054973
 14
-0.342317094361988
 24
0.4529469064190152
 14
-0.3499828351856422
 24
0.4507726535164522
 14
-0.3576347679070295
 24
0.4485502935799843
 14
-0.3652725906293881
 24
0.446279914289903
 14
-0.372896002012908
 24
0.4439616052208919
 14
-0.3805047012857585
 24
0.4415954578387584
 14
-0.3880983882572764
 24
0.4391815654966535
 14
-0.3956767633285381
 24
0.4367200234314907
 14
-0.4032395275050931
 24
0.4342109287600806
 14
-0.4107863824081051
 24
0.4316543804753508
 14
-0.4183170302867438
 24
0.429050479442509
 14
-0.4258311740292129
 24
0.4263993283949787
 14
-0.4333285171753687
 24
0.4237010319303351
 14
-0.4408087639270661
 24
0.4209556965062404
 14
-0.4482716191619147
 24
0.4181634304362376
 14
-0.4557167884423734
 24
0.415324343885402
 14
-0.4631439780297342
 24
0.4124385488660778
 14
-0.4705528948942401
 24
0.4095061592334446
 14
-0.4779432467266815
 24
0.406527290680998
 14
-0.4853147419507877
 24
0.4035020607359741
 14
-0.4926670897342547
 24
0.4004305887547446
 14
-0.4999999999998863
 24
0.3973129959181563
 14
0.5000000000001137
 24
0.3973129959181563
290
     0
  0
LWPOLYLINE
  5
2E4
330
1F
100
AcDbEntity
  8
Sc.1_5
  6
Continuous
 62
     9
370
    20
390
5F
100
AcDbPolyline
 90
        3
 70
     0
 43
0.0
 38
548.639990234375
 39
-548.639990234375
 10
2645.641346920339
 20
-462.5273178458414
 42
-0.2053865205643541
 10
2642.845534319547
 20
-462.5273178458414
 10
2645.641346920339
 20
-462.5273178458414
  0
WIPEOUT
  5
2E5
330
1F
100
AcDbEntity
  8
Sc.1_5
  6
Continuous
390
5F
160
               152
310
98000000040000000C0000000E000000120000000C00000016000000000000C20C00000014000000010000006C000000070000000400000024870C7149ACA440C767D6E46FE87CC000000000000000008BED72D7AFA4A440C767D6E46FE87CC000000000000000008BED72D7AFA4A440F9800020BCE57CC000000000000000
310
0024870C7149ACA440F9800020BCE57CC00000000000000000
100
AcDbWipeout
 90
        0
 10
2642.343440619943
 20
-462.5273178458414
 30
0.0
 11
3.799999999999727
 21
0.0
 31
0.0
 12
0.0
 22
3.799999999999727
 32
0.0
 13
1.0
 23
1.0
340
0
 70
     7
280
     1
281
    50
282
    50
283
     0
360
0
 71
     2
 91
        5
 14
0.4999999999998863
 24
0.5
 14
-0.5000000000001137
 24
0.5
 14
-0.5000000000001137
 24
0.4555555555561881
 14
0.4999999999998863
 24
0.4555555555561881
 14
0.4999999999998863
 24
0.5
290
     0
  0
LWPOLYLINE
  5
2E6
330
1F
100
AcDbEntity
  8
Sc.1_5
  6
Continuous
 62
     9
370
    20
390
5F
100
AcDbPolyline
 90
        5
 70
     0
 43
0.0
 38
548.639990234375
 39
-548.639990234375
 10
2646.143440619942
 20
-462.5273178458414
 10
2642.343440619943
 20
-462.5273178458414
 10
2642.343440619943
 20
-462.358428956955
 10
2646.143440619942
 20
-462.358428956955
 10
2646.143440619942
 20
-462.5273178458414
  0
WIPEOUT
  5
2E7
330
1F
100
AcDbEntity
  8
Sc.1_5
  6
Continuous
390
5F
160
               200
310
C8000000040000000C0000000E000000120000000C00000016000000000000C20C00000014000000010000009C0000000700000006000000B349029AA5A9A440C7AFE0F3C1D67CC00000000000000000440CF8C201AAA440C7A5594A24DE7CC00000000000000000440CF8C201AAA440FA800020BCE57CC000000000000000
310
006C688785F7A6A440FA800020BCE57CC000000000000000006C688785F7A6A440C7A5594A24DE7CC00000000000000000FB2A7DAE53A7A440C7AFE0F3C1D67CC00000000000000000
100
AcDbWipeout
 90
        0
 10
2643.483440619942
 20
-462.358428956955
 30
0.0
 11
1.519999999999982
 21
0.0
 31
0.0
 12
0.0
 22
1.519999999999982
 32
0.0
 13
1.0
 23
1.0
340
0
 70
     7
280
     1
281
    50
282
    50
283
     0
360
0
 71
     2
 91
        7
 14
0.3815789473680979
 24
-0.1158402871369617
 14
0.5
 24
0.1877835601366087
 14
0.5
 24
0.5
 14
-0.5
 24
0.5
 14
-0.5
 24
0.1877835601366087
 14
-0.3815789473685527
 24
-0.1158402871369617
 14
0.3815789473680979
 24
-0.1158402871369617
290
     0
  0
LWPOLYLINE
  5
2E8
330
1F
100
AcDbEntity
  8
Sc.1_5
  6
Continuous
 62
     9
370
    20
390
5F
100
AcDbPolyline
 90
        7
 70
     0
 43
0.0
 38
548.639990234375
 39
-548.639990234375
 10
2644.823440619942
 20
-461.4223517205068
 10
2645.003440619942
 20
-461.8838599683626
 10
2645.003440619942
 20
-462.358428956955
 10
2643.483440619942
 20
-462.358428956955
 10
2643.483440619942
 20
-461.8838599683626
 10
2643.663440619942
 20
-461.4223517205068
 10
2644.823440619942
 20
-461.4223517205068
  0
WIPEOUT
  5
2E9
330
1F
100
AcDbEntity
  8
Sc.1_5
  6
Continuous
390
5F
160
               152
310
98000000040000000C0000000E000000120000000C00000016000000000000C20C00000014000000010000006C0000000700000004000000B349029AA5A9A440C707A0A522CC7CC00000000000000000B349029AA5A9A440C6AFE0F3C1D67CC00000000000000000FB2A7DAE53A7A440C6AFE0F3C1D67CC000000000000000
310
00FB2A7DAE53A7A440C707A0A522CC7CC00000000000000000
100
AcDbWipeout
 90
        0
 10
2643.663440619942
 20
-461.4223517205068
 30
0.0
 11
1.159999999999854
 21
0.0
 31
0.0
 12
0.0
 22
1.159999999999854
 32
0.0
 13
1.0
 23
1.0
340
0
 70
     7
280
     1
281
    50
282
    50
283
     0
360
0
 71
     2
 91
        5
 14
0.5
 24
-0.0723215403750714
 14
0.5
 24
0.4999999999999432
 14
-0.5
 24
0.4999999999999432
 14
-0.5
 24
-0.0723215403750714
 14
0.5
 24
-0.0723215403750714
290
     0
  0
LWPOLYLINE
  5
2EA
330
1F
100
AcDbEntity
  8
Sc.1_5
  6
Continuous
 62
     9
370
    20
390
5F
100
AcDbPolyline
 90
        5
 70
     0
 43
0.0
 38
548.639990234375
 39
-548.639990234375
 10
2644.823440619942
 20
-460.7584587336718
 10
2644.823440619942
 20
-461.4223517205068
 10
2643.663440619942
 20
-461.4223517205068
 10
2643.663440619942
 20
-460.7584587336718
 10
2644.823440619942
 20
-460.7584587336718
  0
WIPEOUT
  5
2EB
330
1F
100
AcDbEntity
  8
Sc.1_5
  6
Continuous
390
5F
160
               248
310
F8000000040000000C0000000E000000120000000C00000016000000000000C20C0000001400000001000000CC0000000700000008000000BC20A60AE3A6A4402D709AED36C67CC00000000000000000BC20A60AE3A6A440952634BC53C67CC000000000000000008758616B88A7A4402ECE57138CC97CC000000000000000
310
0097D30A2958A9A440C907A0A522CC7CC00000000000000000F053D93D16AAA440C833707FCCCA7CC00000000000000000F053D93D16AAA440C87DD6B0AFCA7CC00000000000000000103BEF304FA9A4402EEEED1779C77CC00000000000000000E7DE8FFDBEA7A440C8952A4E3DC57CC00000000000000000
100
AcDbWipeout
 90
        0
 10
2643.443440619942
 20
-460.7584587336718
 30
0.0
 11
1.600000000000819
 21
0.0
 31
0.0
 12
0.0
 22
1.600000000000819
 32
0.0
 13
1.0
 23
1.0
340
0
 70
     7
280
     1
281
    50
282
    50
283
     0
360
0
 71
     2
 91
        9
 14
-0.5
 24
0.2687196601365258
 14
-0.5
 24
0.2731152645321231
 14
-0.2981227334971663
 24
0.3988996254630024
 14
0.2679671924308877
 24
0.5000000000000568
 14
0.5
 24
0.4477921802827609
 14
0.5
 24
0.4433965758908585
 14
0.257018497266472
 24
0.317878189263979
 14
-0.2315077159023531
 24
0.2306302435574139
 14
-0.5
 24
0.2687196601365258
290
     0
  0
LWPOLYLINE
  5
2EC
330
1F
100
AcDbEntity
  8
Sc.1_5
  6
Continuous
 62
     9
370
    20
390
5F
100
AcDbPolyline
 90
        9
 70
     0
 43
0.0
 38
548.639990234375
 39
-548.639990234375
 10
2643.443440619942
 20
-460.3884101898901
 10
2643.443440619942
 20
-460.395443156923
 10
2643.766444246347
 20
-460.5966981344125
 10
2644.672188127832
 20
-460.7584587336718
 10
2645.043440619942
 20
-460.6749262221242
 10
2645.043440619942
 20
-460.6678932550971
 10
2644.654670215569
 20
-460.467063836494
 10
2643.873028274498
 20
-460.3274671233634
 10
2643.443440619942
 20
-460.3884101898901
  0
WIPEOUT
  5
2ED
330
1F
100
AcDbEntity
  8
Sc.1_5
  6
Continuous
390
5F
160
               248
310
F8000000040000000C0000000E000000120000000C00000016000000000000C20C0000001400000001000000CC0000000700000008000000BC20A60AE3A6A44061AF8AF175B67CC00000000000000000BC20A60AE3A6A440C76524C092B67CC000000000000000008758616B88A7A440610D4817CBB97CC000000000000000
310
0097D30A2958A9A440944690A961BC7CC00000000000000000F053D93D16AAA440FA7260830BBB7CC00000000000000000F053D93D16AAA44095BCC6B4EEBA7CC00000000000000000103BEF304FA9A440FB2CDE1BB8B77CC00000000000000000E7DE8FFDBEA7A44095D41A527CB57CC00000000000000000
100
AcDbWipeout
 90
        0
 10
2643.443440619942
 20
-459.7738433490533
 30
0.0
 11
1.600000000000819
 21
0.0
 31
0.0
 12
0.0
 22
1.600000000000819
 32
0.0
 13
1.0
 23
1.0
340
0
 70
     7
280
     1
281
    50
282
    50
283
     0
360
0
 71
     2
 91
        9
 14
-0.5
 24
0.2687196601401638
 14
-0.5
 24
0.2731152645357042
 14
-0.2981227334971663
 24
0.3988996254666404
 14
0.2679671924308877
 24
0.5
 14
0.5
 24
0.447792180286342
 14
0.5
 24
0.4433965758908585
 14
0.257018497266472
 24
0.317878189263979
 14
-0.2315077159023531
 24
0.2306302435574139
 14
-0.5
 24
0.2687196601401638
290
     0
  0
LWPOLYLINE
  5
2EE
330
1F
100
AcDbEntity
  8
Sc.1_5
  6
Continuous
 62
     9
370
    20
390
5F
100
AcDbPolyline
 90
        9
 70
     0
 43
0.0
 38
548.639990234375
 39
-548.639990234375
 10
2643.443440619942
 20
-459.4037948052774
 10
2643.443440619942
 20
-459.4108277723103
 10
2643.766444246347
 20
-459.6120827497998
 10
2644.672188127832
 20
-459.7738433490533
 10
2645.043440619942
 20
-459.6903108375114
 10
2645.043440619942
 20
-459.6832778704786
 10
2644.654670215569
 20
-459.4824484518755
 10
2643.873028274498
 20
-459.3428517387449
 10
2643.443440619942
 20
-459.4037948052774
  0
WIPEOUT
  5
2EF
330
1F
100
AcDbEntity
  8
Sc.1_5
  6
Continuous
390
5F
160
               248
310
F8000000040000000C0000000E000000120000000C00000016000000000000C20C0000001400000001000000CC0000000700000008000000BC20A60AE3A6A4402DEE7AF5B4A67CC00000000000000000BC20A60AE3A6A44094A414C4D1A67CC000000000000000008758616B88A7A4402C4C381B0AAA7CC000000000000000
310
0097D30A2958A9A440C78580ADA0AC7CC00000000000000000F053D93D16AAA440C6B150874AAB7CC00000000000000000F053D93D16AAA440C6FBB6B82DAB7CC00000000000000000103BEF304FA9A4402C6CCE1FF7A77CC00000000000000000E7DE8FFDBEA7A440C6130B56BBA57CC00000000000000000
100
AcDbWipeout
 90
        0
 10
2643.443440619942
 20
-458.7892279644406
 30
0.0
 11
1.600000000000819
 21
0.0
 31
0.0
 12
0.0
 22
1.600000000000819
 32
0.0
 13
1.0
 23
1.0
340
0
 70
     7
280
     1
281
    50
282
    50
283
     0
360
0
 71
     2
 91
        9
 14
-0.5
 24
0.2687196601365258
 14
-0.5
 24
0.2731152645320662
 14
-0.2981227334971663
 24
0.3988996254629456
 14
0.2679671924308877
 24
0.5
 14
0.5
 24
0.4477921802827041
 14
0.5
 24
0.4433965758908016
 14
0.257018497266472
 24
0.3178781892639222
 14
-0.2315077159023531
 24
0.2306302435573571
 14
-0.5
 24
0.2687196601365258
290
     0
  0
LWPOLYLINE
  5
2F0
330
1F
100
AcDbEntity
  8
Sc.1_5
  6
Continuous
 62
     9
370
    20
390
5F
100
AcDbPolyline
 90
        9
 70
     0
 43
0.0
 38
548.639990234375
 39
-548.639990234375
 10
2643.443440619942
 20
-458.4191794206588
 10
2643.443440619942
 20
-458.4262123876917
 10
2643.766444246347
 20
-458.6274673651813
 10
2644.672188127832
 20
-458.7892279644406
 10
2645.043440619942
 20
-458.7056954528929
 10
2645.043440619942
 20
-458.6986624858659
 10
2644.654670215569
 20
-458.4978330672628
 10
2643.873028274498
 20
-458.3582363541322
 10
2643.443440619942
 20
-458.4191794206588
  0
WIPEOUT
  5
2F1
330
1F
100
AcDbEntity
  8
Sc.1_5
  6
Continuous
390
5F
160
               248
310
F8000000040000000C0000000E000000120000000C00000016000000000000C20C0000001400000001000000CC0000000700000008000000BC20A60AE3A6A440C7E304C810977CC00000000000000000BC20A60AE3A6A4402D9A9E962D977CC000000000000000008758616B88A7A440C741C2ED659A7CC000000000000000
310
0097D30A2958A9A440FA7A0A80FC9C7CC00000000000000000F053D93D16AAA44060A7DA59A69B7CC00000000000000000F053D93D16AAA440FBF0408B899B7CC00000000000000000103BEF304FA9A4405F6158F252987CC00000000000000000E7DE8FFDBEA7A440F908952817967CC00000000000000000
100
AcDbWipeout
 90
        0
 10
2643.443440619942
 20
-457.8116455468549
 30
0.0
 11
1.600000000000819
 21
0.0
 31
0.0
 12
0.0
 22
1.600000000000819
 32
0.0
 13
1.0
 23
1.0
340
0
 70
     7
280
     1
281
    50
282
    50
283
     0
360
0
 71
     2
 91
        9
 14
-0.5
 24
0.2687196601401638
 14
-0.5
 24
0.2731152645357042
 14
-0.2981227334971663
 24
0.3988996254666404
 14
0.2679671924308877
 24
0.5
 14
0.5
 24
0.447792180286342
 14
0.5
 24
0.4433965758908585
 14
0.257018497266472
 24
0.3178781892639222
 14
-0.2315077159023531
 24
0.2306302435573571
 14
-0.5
 24
0.2687196601401638
290
     0
  0
LWPOLYLINE
  5
2F2
330
1F
100
AcDbEntity
  8
Sc.1_5
  6
Continuous
 62
     9
370
    20
390
5F
100
AcDbPolyline
 90
        9
 70
     0
 43
0.0
 38
548.639990234375
 39
-548.639990234375
 10
2643.443440619942
 20
-457.441597003079
 10
2643.443440619942
 20
-457.4486299701119
 10
2643.766444246347
 20
-457.6498849476015
 10
2644.672188127832
 20
-457.8116455468549
 10
2645.043440619942
 20
-457.7281130353131
 10
2645.043440619942
 20
-457.7210800682802
 10
2644.654670215569
 20
-457.5202506496771
 10
2643.873028274498
 20
-457.3806539365465
 10
2643.443440619942
 20
-457.441597003079
  0
WIPEOUT
  5
2F3
330
1F
100
AcDbEntity
  8
Sc.1_5
  6
Continuous
390
5F
160
               248
310
F8000000040000000C0000000E000000120000000C00000016000000000000C20C0000001400000001000000CC0000000700000008000000BC20A60AE3A6A4409522F5CB4F877CC00000000000000000BC20A60AE3A6A440FBD88E9A6C877CC000000000000000008758616B88A7A4409580B2F1A48A7CC000000000000000
310
0097D30A2958A9A4402DBAFA833B8D7CC00000000000000000F053D93D16AAA4402EE6CA5DE58B7CC00000000000000000F053D93D16AAA4402E30318FC88B7CC00000000000000000103BEF304FA9A44094A048F691887CC00000000000000000E7DE8FFDBEA7A4402E48852C56867CC00000000000000000
100
AcDbWipeout
 90
        0
 10
2643.443440619942
 20
-456.8270301622422
 30
0.0
 11
1.600000000000819
 21
0.0
 31
0.0
 12
0.0
 22
1.600000000000819
 32
0.0
 13
1.0
 23
1.0
340
0
 70
     7
280
     1
281
    50
282
    50
283
     0
360
0
 71
     2
 91
        9
 14
-0.5
 24
0.2687196601365827
 14
-0.5
 24
0.2731152645321231
 14
-0.2981227334971663
 24
0.3988996254630592
 14
0.2679671924308877
 24
0.5
 14
0.5
 24
0.4477921802827609
 14
0.5
 24
0.4433965758908585
 14
0.257018497266472
 24
0.317878189263979
 14
-0.2315077159023531
 24
0.2306302435574139
 14
-0.5
 24
0.2687196601365827
290
     0
  0
LWPOLYLINE
  5
2F4
330
1F
100
AcDbEntity
  8
Sc.1_5
  6
Continuous
 62
     9
370
    20
390
5F
100
AcDbPolyline
 90
        9
 70
     0
 43
0.0
 38
548.639990234375
 39
-548.639990234375
 10
2643.443440619942
 20
-456.4569816184605
 10
2643.443440619942
 20
-456.4640145854934
 10
2643.766444246347
 20
-456.665269562983
 10
2644.672188127832
 20
-456.8270301622422
 10
2645.043440619942
 20
-456.7434976506946
 10
2645.043440619942
 20
-456.7364646836675
 10
2644.654670215569
 20
-456.5356352650645
 10
2643.873028274498
 20
-456.3960385519338
 10
2643.443440619942
 20
-456.4569816184605
  0
WIPEOUT
  5
2F5
330
1F
100
AcDbEntity
  8
Sc.1_5
  6
Continuous
390
5F
160
               248
310
F8000000040000000C0000000E000000120000000C00000016000000000000C20C0000001400000001000000CC0000000700000008000000BC20A60AE3A6A4406061E5CF8E777CC00000000000000000BC20A60AE3A6A440C7177F9EAB777CC000000000000000008758616B88A7A44061BFA2F5E37A7CC000000000000000
310
0097D30A2958A9A440FAF8EA877A7D7CC00000000000000000F053D93D16AAA440FB24BB61247C7CC00000000000000000F053D93D16AAA440FB6E2193077C7CC00000000000000000103BEF304FA9A44061DF38FAD0787CC00000000000000000E7DE8FFDBEA7A440FB86753095767CC00000000000000000
100
AcDbWipeout
 90
        0
 10
2643.443440619942
 20
-455.8424147776237
 30
0.0
 11
1.600000000000819
 21
0.0
 31
0.0
 12
0.0
 22
1.600000000000819
 32
0.0
 13
1.0
 23
1.0
340
0
 70
     7
280
     1
281
    50
282
    50
283
     0
360
0
 71
     2
 91
        9
 14
-0.5
 24
0.2687196601365258
 14
-0.5
 24
0.2731152645320662
 14
-0.2981227334971663
 24
0.3988996254630024
 14
0.2679671924308877
 24
0.5
 14
0.5
 24
0.4477921802827609
 14
0.5
 24
0.4433965758908585
 14
0.257018497266472
 24
0.317878189263979
 14
-0.2315077159023531
 24
0.2306302435574139
 14
-0.5
 24
0.2687196601365258
290
     0
  0
LWPOLYLINE
  5
2F6
330
1F
100
AcDbEntity
  8
Sc.1_5
  6
Continuous
 62
     9
370
    20
390
5F
100
AcDbPolyline
 90
        9
 70
     0
 43
0.0
 38
548.639990234375
 39
-548.639990234375
 10
2643.443440619942
 20
-455.472366233842
 10
2643.443440619942
 20
-455.4793992008749
 10
2643.766444246347
 20
-455.6806541783644
 10
2644.672188127832
 20
-455.8424147776237
 10
2645.043440619942
 20
-455.7588822660761
 10
2645.043440619942
 20
-455.751849299049
 10
2644.654670215569
 20
-455.5510198804459
 10
2643.873028274498
 20
-455.4114231673153
 10
2643.443440619942
 20
-455.472366233842
  0
WIPEOUT
  5
2F7
330
1F
100
AcDbEntity
  8
Sc.1_5
  6
Continuous
390
5F
160
               248
310
F8000000040000000C0000000E000000120000000C00000016000000000000C20C0000001400000001000000CC0000000700000008000000BC20A60AE3A6A44094A0D5D3CD677CC00000000000000000BC20A60AE3A6A440FA566FA2EA677CC000000000000000008758616B88A7A44094FE92F9226B7CC000000000000000
310
0097D30A2958A9A440C737DB8BB96D7CC00000000000000000F053D93D16AAA4402D64AB65636C7CC00000000000000000F053D93D16AAA440C6AD1197466C7CC00000000000000000103BEF304FA9A4402C1E29FE0F697CC00000000000000000E7DE8FFDBEA7A440C6C56534D4667CC00000000000000000
100
AcDbWipeout
 90
        0
 10
2643.443440619942
 20
-454.8577993930052
 30
0.0
 11
1.600000000000819
 21
0.0
 31
0.0
 12
0.0
 22
1.600000000000819
 32
0.0
 13
1.0
 23
1.0
340
0
 70
     7
280
     1
281
    50
282
    50
283
     0
360
0
 71
     2
 91
        9
 14
-0.5
 24
0.2687196601401638
 14
-0.5
 24
0.2731152645357042
 14
-0.2981227334971663
 24
0.3988996254666404
 14
0.2679671924308877
 24
0.5
 14
0.5
 24
0.447792180286342
 14
0.5
 24
0.4433965758908016
 14
0.257018497266472
 24
0.3178781892639222
 14
-0.2315077159023531
 24
0.2306302435573571
 14
-0.5
 24
0.2687196601401638
290
     0
  0
LWPOLYLINE
  5
2F8
330
1F
100
AcDbEntity
  8
Sc.1_5
  6
Continuous
 62
     9
370
    20
390
5F
100
AcDbPolyline
 90
        9
 70
     0
 43
0.0
 38
548.639990234375
 39
-548.639990234375
 10
2643.443440619942
 20
-454.4877508492293
 10
2643.443440619942
 20
-454.4947838162622
 10
2643.766444246347
 20
-454.6960387937518
 10
2644.672188127832
 20
-454.8577993930052
 10
2645.043440619942
 20
-454.7742668814633
 10
2645.043440619942
 20
-454.7672339144305
 10
2644.654670215569
 20
-454.5664044958274
 10
2643.873028274498
 20
-454.4268077826968
 10
2643.443440619942
 20
-454.4877508492293
  0
WIPEOUT
  5
2F9
330
1F
100
AcDbEntity
  8
Sc.1_5
  6
Continuous
390
5F
160
              3944
310
680F0000040000000C0000000E000000120000000C00000016000000000000C20C00000014000000010000003C0F000007000000A200000059BA3FA47CA8A4409476A07A4F5A7CC0000000000000000073BC320B77A8A440F503AA64A15A7CC00000000000000000227E918271A8A44030DDFC95F35A7CC000000000000000
310
00722E6A0A6CA8A4400056C60D465B7CC0000000000000000036D2CAA266A8A440860D33CB985B7CC00000000000000000DF43C14B61A8A4405FF06ECDEB5B7CC000000000000000005B335B055CA8A440D13AA5133F5C7CC00000000000000000F625A6CF56A8A440DE7A009D925C7CC000000000000000002F76AFAA51A8
310
A4407592AA68E65C7CC000000000000000009E5384964CA8A4408BB9CC753A5D7CC00000000000000000CDC2319347A8A44046808FC38E5D7CC00000000000000000179DC4A042A8A44026D11A51E35D7CC000000000000000008A9049BF3DA8A44033F3951D385E7CC00000000000000000C51FCDEE38A8A4401D8C27288D
310
5E7CC00000000000000000D7A15B2F34A8A44075A2F56FE25E7CC000000000000000001F4201812FA8A440D29F25F4375F7CC000000000000000002F00CAE32AA8A4400B53DCB38D5F7CC00000000000000000AEAFC15726A8A44061F23DAEE35F7CC0000000000000000033F8F3DC21A8A440B51D6EE239607CC000000000
310
0000000030556C731DA8A440BEE08F4F90607CC00000000000000000D015361B19A8A4403CB5C5F4E6607CC00000000000000000DB5C5CD414A8A440348531D13D617CC000000000000000009420EA9E10A8A44029ADF4E394617CC00000000000000000A72AEA7A0CA8A44053FE2F2CEC617CC000000000000000000A1867
310
6808A8A440DCC003A943627CC00000000000000000D9586B6704A8A44021B68F599B627CC000000000000000004730017800A8A440EB1AF33CF3627CC0000000000000000080B4329AFCA7A440B5A94C524B637CC000000000000000008ACE09CEF8A7A440ED9CBA98A3637CC00000000000000000343A9013F5A7A4402EB1
310
5A0FFC637CC00000000000000000F685CF6AF1A7A4408F274AB554647CC00000000000000000DB12D1D3EDA7A440E3C7A589AD647CC0000000000000000069149E4EEAA7A440FEE2898B06657CC000000000000000008F903FDBE6A7A440045512BA5F657CC00000000000000000815FBE79E3A7A440A4875A14B9657CC000
310
00000000000000AE2B232AE0A7A44072747D9912667CC00000000000000000A17176ECDCA7A44025A795486C667CC00000000000000000F37FC0C0D9A7A440EB3FBD20C6667CC000000000000000002D7709A7D6A7A440B3F50D2120677CC00000000000000000BB49599FD3A7A4407D18A1487A677CC00000000000000000
310
D4BBB7A9D0A7A440A6938F96D4677CC0000000000000000065632CC6CDA7A4403BF0F1092F687CC0000000000000000001A8BEF4CAA7A4404B57E0A189687CC00000000000000000CBC27535C8A7A4403694725DE4687CC0000000000000000063BE5888C5A7A4400517C03B3F697CC00000000000000000D7766EEDC2A7A4
310
40BBF6DF3B9A697CC000000000000000009199BD64C0A7A440A5F3E85CF5697CC0000000000000000044A54CEEBDA7A440BA79F19D506A7CC00000000000000000DDE9218ABBA7A440ECA20FFEAB6A7CC000000000000000006D884338B9A7A4408239597C076B7CC000000000000000002673B7F8B6A7A4406BBAE317636B
310
7CC000000000000000003E6D83CBB4A7A4409D57C4CFBE6B7CC00000000000000000EA0AADB0B2A7A44069FA0FA31A6C7CC0000000000000000048B139A8B0A7A440E045DB90766C7CC0000000000000000059962EB2AEA7A44022993A98D26C7CC00000000000000000EFC090CEACA7A440C11142B82E6D7CC00000000000
310
0000009F0865FDAAA7A440198E05F08A6D7CC00000000000000000B715B03EA9A7A440B8AF983EE76D7CC0000000000000000033617692A7A7A440AADD0EA3436E7CC00000000000000000B034BCF8A5A7A440EC467B1CA06E7CC000000000000000005EAA8571A4A7A440B5E4F0A9FC6E7CC00000000000000000FDACD6FC
310
A2A7A440EA7C824A596F7CC00000000000000000CBF7B29AA1A7A44073A442FDB56F7CC000000000000000007F161E4BA0A7A4409CC143C112707CC0000000000000000041651B0E9FA7A440780E98956F707CC000000000000000009D10AEE39DA7A440439B5179CC707CC000000000000000007B15D9CB9CA7A440C15082
310
6B29717CC000000000000000001E419FC69BA7A440A5F23B6B86717CC00000000000000000173103D49AA7A440EE219077E3717CC000000000000000003E5307F499A7A440505F908F40727CC00000000000000000AEE5AD2699A7A440920D4EB29D727CC00000000000000000BFF6F86B98A7A440F373DADEFA727CC00000
310
0000000000000165EAC397A7A44090C0461458737CC0000000000000000034DF832E97A7A440CA0AA451B5737CC000000000000000004AE4C6AB96A7A4409F55039612747CC000000000000000005BC3B43B96A7A4401C9275E06F747CC00000000000000000AB9B4EDE95A7A440BEA10B30CD747CC000000000000000009D
310
5C959395A7A440D358D6832A757CC00000000000000000BAC5895B95A7A440DF80E6DA87757CC00000000000000000A8662C3695A7A44009DB4C34E5757CC000000000000000002E9F7D2395A7A44076221A8F42767CC000000000000000002E9F7D2395A7A440B30E5FEA9F767CC00000000000000000A8662C3695A7A440
310
20562C45FD767CC00000000000000000BAC5895B95A7A44049B0929E5A777CC000000000000000009D5C959395A7A44057D8A2F5B7777CC00000000000000000AB9B4EDE95A7A4406A8F6D4915787CC000000000000000005BC3B43B96A7A4400C9F039972787CC000000000000000004AE4C6AB96A7A4408ADB75E3CF787C
310
C0000000000000000034DF832E97A7A4406026D5272D797CC000000000000000000165EAC397A7A440987032658A797CC00000000000000000BFF6F86B98A7A44037BD9E9AE7797CC00000000000000000AEE5AD2699A7A44098232BC7447A7CC000000000000000003E5307F499A7A440D8D1E8E9A17A7CC0000000000000
310
0000173103D49AA7A4403A0FE901FF7A7CC000000000000000001E419FC69BA7A440853E3D0E5C7B7CC000000000000000007B15D9CB9CA7A44069E0F60DB97B7CC000000000000000009D10AEE39DA7A440E7952700167C7CC0000000000000000041651B0E9FA7A440B122E1E3727C7CC000000000000000007F161E4BA0
310
A7A4408D6F35B8CF7C7CC00000000000000000CBF7B29AA1A7A440B58C367C2C7D7CC00000000000000000FDACD6FCA2A7A4403EB4F62E897D7CC000000000000000005EAA8571A4A7A440734C88CFE57D7CC00000000000000000B034BCF8A5A7A4403DEAFD5C427E7CC0000000000000000033617692A7A7A4407E536AD6
310
9E7E7CC00000000000000000B715B03EA9A7A4407281E03AFB7E7CC000000000000000009F0865FDAAA7A4400FA37389577F7CC00000000000000000EFC090CEACA7A440681F37C1B37F7CC0000000000000000059962EB2AEA7A44008983EE10F807CC0000000000000000048B139A8B0A7A44048EB9DE86B807CC0000000
310
0000000000EA0AADB0B2A7A440BF3669D6C7807CC000000000000000003E6D83CBB4A7A4408DD9B4A923817CC000000000000000002673B7F8B6A7A440BD7695617F817CC000000000000000006D884338B9A7A440A6F71FFDDA817CC00000000000000000DDE9218ABBA7A4403C8E697B36827CC0000000000000000044A5
310
4CEEBDA7A44070B787DB91827CC000000000000000009199BD64C0A7A440853D901CED827CC00000000000000000D7766EEDC2A7A4406E3A993D48837CC0000000000000000063BE5888C5A7A440241AB93DA3837CC00000000000000000CBC27535C8A7A440F29C061CFE837CC0000000000000000001A8BEF4CAA7A440DF
310
D998D758847CC0000000000000000065632CC6CDA7A440EF40876FB3847CC00000000000000000D4BBB7A9D0A7A440849DE9E20D857CC00000000000000000BB49599FD3A7A440AB18D83068857CC000000000000000002D7709A7D6A7A440763B6B58C2857CC00000000000000000F37FC0C0D9A7A4403DF1BB581C867CC0
310
0000000000000000A17176ECDCA7A440058AE33076867CC00000000000000000AE2B232AE0A7A440B8BCFBDFCF867CC00000000000000000815FBE79E3A7A44084A91E6529877CC000000000000000008F903FDBE6A7A44026DC66BF82877CC0000000000000000069149E4EEAA7A4402A4EEFEDDB877CC000000000000000
310
00DB12D1D3EDA7A4404769D3EF34887CC00000000000000000F685CF6AF1A7A4409B092FC48D887CC00000000000000000343A9013F5A7A440FC7F1E6AE6887CC000000000000000008ACE09CEF8A7A4403D94BEE03E897CC0000000000000000080B4329AFCA7A44074872C2797897CC000000000000000004730017800A8
310
A4403F16863CEF897CC00000000000000000D9586B6704A8A440097BE91F478A7CC000000000000000000A18676808A8A4404E7075D09E8A7CC00000000000000000A72AEA7A0CA8A440D532494DF68A7CC000000000000000009420EA9E10A8A440FF8384954D8B7CC00000000000000000DB5C5CD414A8A440F5AB47A8A4
310
8B7CC00000000000000000D015361B19A8A440EE7BB384FB8B7CC0000000000000000030556C731DA8A4406C50E929528C7CC0000000000000000033F8F3DC21A8A44074130B97A88C7CC00000000000000000AEAFC15726A8A440C73E3BCBFE8C7CC000000000000000002F00CAE32AA8A4401DDE9CC5548D7CC000000000
310
000000001F4201812FA8A44057915385AA8D7CC00000000000000000D7A15B2F34A8A440B58E8309008E7CC00000000000000000C51FCDEE38A8A4400BA55151558E7CC000000000000000008A9049BF3DA8A440F53DE35BAA8E7CC00000000000000000179DC4A042A8A44002605E28FF8E7CC00000000000000000CDC231
310
9347A8A440E3B0E9B5538F7CC000000000000000009E5384964CA8A4409F77AC03A88F7CC000000000000000002F76AFAA51A8A440B39ECE10FC8F7CC00000000000000000F625A6CF56A8A4404AB678DC4F907CC000000000000000005B335B055CA8A44059F6D365A3907CC00000000000000000DF43C14B61A8A440CB40
310
0AACF6907CC0000000000000000036D2CAA266A8A440A42346AE49917CC00000000000000000722E6A0A6CA8A44028DBB26B9C917CC00000000000000000227E918271A8A440F8537CE3EE917CC0000000000000000073BC320B77A8A440342DCF1441927CC0000000000000000059BA3FA47CA8A44094BAD8FE92927CC000
310
00000000000000
100
AcDbWipeout
 90
        0
 10
2643.791286397629
 20
-457.1608875719041
 30
0.0
 11
3.516483516490553
 21
0.0
 31
0.0
 12
0.0
 22
3.516483516490553
 32
0.0
 13
1.0
 23
1.0
340
0
 70
     7
280
     1
281
    50
282
    50
283
     0
360
0
 71
     2
 91
      163
 14
-0.3714186430297559
 24
-0.5
 14
-0.3745278029326755
 24
-0.4943129021062589
 14
-0.3776013359192802
 24
-0.4886064712834468
 14
-0.3806391217815417
 24
-0.4828809307141171
 14
-0.3836410417092111
 24
-0.4771365043282003
 14
-0.3866069782952763
 24
-0.4713734167943642
 14
-0.3895368155398273
 24
-0.4655918935110037
 14
-0.3924304388547171
 24
-0.459792160597658
 14
-0.395287735068564
 24
-0.4539744448859437
 14
-0.3981085924301624
 24
-0.4481389739108863
 14
-0.4008929006139397
 24
-0.4422859759019104
 14
-0.4036405507235941
 24
-0.4364156797739724
 14
-0.4063514352966422
 24
-0.4305283151184369
 14
-0.4090254483083982
 24
-0.4246241121943797
 14
-0.4116624851761799
 24
-0.4187033019193507
 14
-0.4142624427638566
 24
-0.4127661158604781
 14
-0.4168252193851458
 24
-0.4068127862253164
 14
-0.4193507148079334
 24
-0.4008435458528083
 14
-0.4218388302583662
 24
-0.3948586282041902
 14
-0.4242894684246039
 24
-0.3888582673538679
 14
-0.4267025334602295
 24
-0.3828426979802089
 14
-0.4290779309884556
 24
-0.3768121553564185
 14
-0.4314155681062175
 24
-0.3707668753413031
 14
-0.433715353386674
 24
-0.3647070943700328
 14
-0.4359771968833002
 24
-0.3586330494449896
 14
-0.4382010101342075
 24
-0.3525449781263603
 14
-0.4403867061643041
 24
-0.3464431185229842
 14
-0.442534199489387
 24
-0.3403277092828887
 14
-0.4446434061196669
 24
-0.3341989895840811
 14
-0.4467142435622691
 24
-0.3280571991251691
 14
-0.4487466308255534
 24
-0.3219025781159246
 14
-0.4507404884212747
 24
-0.3157353672679619
 14
-0.4526957383684476
 24
-0.3095558077853013
 14
-0.454612304195507
 24
-0.303364141354848
 14
-0.4564901109444008
 24
-0.2971606101371549
 14
-0.4583290851727497
 24
-0.290945456756674
 14
-0.4601291549570306
 24
-0.2847189242925197
 14
-0.4618902498950774
 24
-0.2784812562687762
 14
-0.463612301109265
 24
-0.2722326966450908
 14
-0.4652952412491231
 24
-0.2659734898070667
 14
-0.4669390044934971
 24
-0.2597038805567138
 14
-0.4685435265536171
 24
-0.2534241141029554
 14
-0.4701087446754855
 24
-0.2471344360518799
 14
-0.4716345976423781
 24
-0.2408350923973046
 14
-0.4731210257771181
 24
-0.2345263295109987
 14
-0.474567970944463
 24
-0.2282083941331621
 14
-0.4759753765532651
 24
-0.2218815333627902
 14
-0.4773431875589722
 24
-0.215545994647897
 14
-0.4786713504653335
 24
-0.2092020257758804
 14
-0.4799598133272411
 24
-0.2028498748638583
 14
-0.4812085257517538
 24
-0.1964897903490055
 14
-0.4824174389010523
 24
-0.1901220209787198
 14
-0.4835865054934629
 24
-0.1837468158010438
 14
-0.4847156798060723
 24
-0.1773644241547174
 14
-0.4858049176762052
 24
-0.1709750956596565
 14
-0.4868541765026748
 24
-0.1645790802070053
 14
-0.487863415248512
 24
-0.1581766279495582
 14
-0.4888325944415328
 24
-0.1517679892916703
 14
-0.4897616761764993
 24
-0.1453534148798497
 14
-0.490650624116256
 24
-0.1389331555925537
 14
-0.4914994034936626
 24
-0.1325074625308105
 14
-0.4923079811120488
 24
-0.1260765870079865
 14
-0.4930763253476016
 24
-0.1196407805401805
 14
-0.4938044061498204
 24
-0.1132002948363606
 14
-0.494492195042767
 24
-0.1067553817885312
 14
-0.4951396651265441
 24
-0.1003062934618129
 14
-0.495746791078318
 24
-0.0938532820846376
 14
-0.4963135491530011
 24
-0.0873966000388577
 14
-0.4968399171840474
 24
-0.080936499849912
 14
-0.4973258745849307
 24
-0.0744732341769065
 14
-0.4977714023494855
 24
-0.0680070558027523
 14
-0.4981764830529301
 24
-0.0615382176243031
 14
-0.4985411008519804
 24
-0.0550669726424076
 14
-0.4988652414865555
 24
-0.0485935739520187
 14
-0.4991488922789813
 24
-0.0421182747324167
 14
-0.4993920421356961
 24
-0.0356413282371761
 14
-0.499594681546796
 24
-0.0291629877842183
 14
-0.4997568025869441
 24
-0.0226835067460627
 14
-0.4998783989153708
 24
-0.0162031385398507
 14
-0.4999594657766693
 24
-0.0097221366173414
 14
-0.4999999999998863
 24
-0.0032407544551631
 14
-0.4999999999998863
 24
0.0032407544551916
 14
-0.4999594657766693
 24
0.0097221366173699
 14
-0.4998783989153708
 24
0.0162031385398507
 14
-0.4997568025869441
 24
0.0226835067460911
 14
-0.499594681546796
 24
0.0291629877842183
 14
-0.4993920421356961
 24
0.0356413282371761
 14
-0.4991488922789813
 24
0.0421182747324451
 14
-0.4988652414865555
 24
0.0485935739520471
 14
-0.4985411008519804
 24
0.0550669726424076
 14
-0.4981764830529301
 24
0.0615382176243315
 14
-0.4977714023494855
 24
0.0680070558027808
 14
-0.4973258745849307
 24
0.0744732341769065
 14
-0.4968399171840474
 24
0.080936499849912
 14
-0.4963135491530011
 24
0.0873966000388862
 14
-0.495746791078318
 24
0.093853282084666
 14
-0.4951396651265441
 24
0.1003062934618413
 14
-0.494492195042767
 24
0.1067553817885596
 14
-0.4938044061498204
 24
0.113200294836389
 14
-0.4930763253476016
 24
0.1196407805401805
 14
-0.4923079811120488
 24
0.1260765870079865
 14
-0.4914994034936626
 24
0.1325074625308105
 14
-0.490650624116256
 24
0.1389331555925821
 14
-0.4897616761764993
 24
0.1453534148798497
 14
-0.4888325944415328
 24
0.1517679892916988
 14
-0.487863415248512
 24
0.1581766279495582
 14
-0.4868541765026748
 24
0.1645790802070337
 14
-0.4858049176762052
 24
0.1709750956596849
 14
-0.4847156798060723
 24
0.1773644241547174
 14
-0.4835865054934629
 24
0.1837468158010438
 14
-0.4824174389010523
 24
0.1901220209787482
 14
-0.4812085257517538
 24
0.1964897903490055
 14
-0.4799598133272411
 24
0.2028498748638583
 14
-0.4786713504653335
 24
0.2092020257758804
 14
-0.4773431875589722
 24
0.2155459946479255
 14
-0.4759753765532651
 24
0.2218815333628186
 14
-0.474567970944463
 24
0.2282083941331905
 14
-0.4731210257771181
 24
0.2345263295110271
 14
-0.4716345976423781
 24
0.2408350923973046
 14
-0.4701087446754855
 24
0.2471344360519083
 14
-0.4685435265536171
 24
0.2534241141029838
 14
-0.4669390044934971
 24
0.2597038805567422
 14
-0.4652952412491231
 24
0.2659734898070667
 14
-0.463612301109265
 24
0.2722326966451192
 14
-0.4618902498950774
 24
0.2784812562687762
 14
-0.4601291549570306
 24
0.2847189242925481
 14
-0.4583290851727497
 24
0.2909454567567025
 14
-0.4564901109444008
 24
0.2971606101371549
 14
-0.454612304195507
 24
0.3033641413548764
 14
-0.4526957383684476
 24
0.3095558077853013
 14
-0.4507404884212747
 24
0.3157353672679903
 14
-0.4487466308255534
 24
0.321902578115953
 14
-0.4467142435622691
 24
0.3280571991251975
 14
-0.4446434061196669
 24
0.3341989895841095
 14
-0.442534199489387
 24
0.3403277092829171
 14
-0.4403867061643041
 24
0.3464431185230126
 14
-0.4382010101342075
 24
0.3525449781263887
 14
-0.4359771968833002
 24
0.3586330494450181
 14
-0.433715353386674
 24
0.3647070943700328
 14
-0.4314155681062175
 24
0.3707668753413031
 14
-0.4290779309884556
 24
0.376812155356447
 14
-0.4267025334602295
 24
0.3828426979802373
 14
-0.4242894684246039
 24
0.3888582673538963
 14
-0.4218388302583662
 24
0.3948586282042186
 14
-0.4193507148079334
 24
0.4008435458528083
 14
-0.4168252193851458
 24
0.4068127862253164
 14
-0.4142624427638566
 24
0.4127661158605065
 14
-0.4116624851761799
 24
0.4187033019193791
 14
-0.4090254483083982
 24
0.4246241121943797
 14
-0.4063514352966422
 24
0.4305283151184369
 14
-0.4036405507235941
 24
0.4364156797739724
 14
-0.4008929006139397
 24
0.4422859759019389
 14
-0.3981085924301624
 24
0.4481389739109147
 14
-0.395287735068564
 24
0.4539744448859437
 14
-0.3924304388547171
 24
0.459792160597658
 14
-0.3895368155398273
 24
0.4655918935110321
 14
-0.3866069782952763
 24
0.4713734167943926
 14
-0.3836410417092111
 24
0.4771365043282287
 14
-0.3806391217815417
 24
0.4828809307141171
 14
-0.3776013359192802
 24
0.4886064712834468
 14
-0.3745278029326755
 24
0.4943129021062873
 14
-0.3714186430297559
 24
0.5
 14
-0.3714186430297559
 24
-0.5
290
     0
  0
LWPOLYLINE
  5
2FA
330
1F
100
AcDbEntity
  8
Sc.1_5
  6
Continuous
 62
     9
370
    20
390
5F
100
AcDbPolyline
 90
        3
 70
     0
 43
0.0
 38
548.639990234375
 39
-548.639990234375
 10
2644.243440619943
 20
-453.6444040554136
 42
0.2571728475703041
 10
2644.243440619943
 20
-457.1608875719041
 10
2644.243440619943
 20
-453.6444040554136
  0
WIPEOUT
  5
2FB
330
1F
100
AcDbEntity
  8
Sc.1_5
  6
Continuous
390
5F
160
               248
310
F8000000040000000C0000000E000000120000000C00000016000000000000C20C0000001400000001000000CC00000007000000080000001BB01F6FFAA9A440C7DF1BCDF3597CC000000000000000001BB01F6FFAA9A440612982FED6597CC000000000000000003C97356233A9A440C7999965A0567CC000000000000000
310
000057070305A8A44060ADD061F0547CC00000000000000000D4981D1029A7A4402D884001EA557CC00000000000000000D4981D1029A7A440953EDACF06567CC00000000000000000A1D0D870CEA7A4402DE6FD263F597CC00000000000000000C12F515A3CA9A440C7B34BF3495B7CC00000000000000000
100
AcDbWipeout
 90
        0
 10
2643.580201077371
 20
-453.7055542904968
 30
0.0
 11
1.408927979794953
 21
0.0
 31
0.0
 12
0.0
 22
1.408927979794953
 32
0.0
 13
1.0
 23
1.0
340
0
 70
     7
280
     1
281
    50
282
    50
283
     0
360
0
 71
     2
 91
        9
 14
0.4999999999997726
 24
0.4407120074655495
 14
0.4999999999997726
 24
0.4357202923930004
 14
0.2240665172751051
 24
0.2931797072934614
 14
-0.1950960867291087
 24
0.218319699518986
 14
-0.5000000000002274
 24
0.2615746191503945
 14
-0.5000000000002274
 24
0.2665663342230005
 14
-0.2707451118601512
 24
0.4094089637794127
 14
0.2365000216934732
 24
0.5
 14
0.4999999999997726
 24
0.4407120074655495
290
     0
  0
LWPOLYLINE
  5
2FC
330
1F
100
AcDbEntity
  8
Sc.1_5
  6
Continuous
 62
     9
370
    20
390
5F
100
AcDbPolyline
 90
        9
 70
     0
 43
0.0
 38
548.639990234375
 39
-548.639990234375
 10
2644.989129057166
 20
-453.6220217789491
 10
2644.989129057166
 20
-453.6149888119162
 10
2644.600358652793
 20
-453.4141593933131
 10
2644.009788731928
 20
-453.308687033792
 10
2643.580201077371
 20
-453.3696301003245
 10
2643.580201077371
 20
-453.3766630673574
 10
2643.903204703777
 20
-453.577918044847
 10
2644.617876565055
 20
-453.7055542904968
 10
2644.989129057166
 20
-453.6220217789491
  0
LINE
  5
2FD
330
1F
100
AcDbEntity
  8
Sc.1_5
  6
Continuous
 62
     7
 48
0.5
370
    15
390
5F
100
AcDbLine
 10
2680.689706765004
 20
-481.6860705110661
 30
500.0
 11
2644.568302704618
 21
-463.0174480980613
 31
500.0
  0
INSERT
  5
2FE
330
1F
100
AcDbEntity
  8
Sc.1_5
 62
     7
370
    15
100
AcDbBlockReference
  2
cw-line-extremity2
 10
2644.568302704618
 20
-463.0174480980613
 30
0.0
 50
332.6687262351193
  0
LINE
  5
2FF
330
1F
100
AcDbEntity
  8
Sc.1_5
  6
Continuous
 62
     7
 48
0.5
370
    15
390
5F
100
AcDbLine
 10
2680.689706765004
 20
-481.6860705110661
 30
500.0
 11
2629.968490805643
 21
-517.2674966325011
 31
500.0
  0
INSERT
  5
300
330
1F
100
AcDbEntity
  8
Sc.1_5
 62
     7
370
    15
100
AcDbBlockReference
  2
cw-line-extremity2
 10
2629.968490805643
 20
-517.2674966325011
 30
0.0
 50
35.05003320321836
  0
LINE
  5
301
330
1F
100
AcDbEntity
  8
Sc.1_5
  6
Continuous
 62
     7
 48
0.5
370
    15
390
5F
100
AcDbLine
 10
2640.815313177891
 20
-480.3648567094647
 30
500.0
 11
2634.449485248871
 21
-461.5289822893496
 31
500.0
  0
INSERT
  5
302
330
1F
100
AcDbEntity
  8
Sc.1_5
 62
     7
370
    15
100
AcDbBlockReference
  2
cw-line-extremity2
 10
2634.449485248871
 20
-461.5289822893496
 30
0.0
 50
288.673348748842
  0
LINE
  5
303
330
1F
100
AcDbEntity
  8
Sc.1_5
  6
Continuous
 62
     7
 48
0.5
370
    15
390
5F
100
AcDbLine
 10
2640.815313177891
 20
-480.3648567094647
 30
500.0
 11
2630.612547866996
 21
-500.3779732808367
 31
500.0
  0
INSERT
  5
304
330
1F
100
AcDbEntity
  8
Sc.1_5
 62
     7
370
    15
100
AcDbBlockReference
  2
cw-line-extremity2
 10
2630.612547866996
 20
-500.3779732808367
 30
0.0
 50
62.987334652061
  0
HATCH
  5
305
330
1F
100
AcDbEntity
  8
Sc.1_5
  6
Continuous
 62
     9
440
 33554687
370
    15
390
5F
100
AcDbHatch
 10
0.0
 20
0.0
 30
0.0
210
0.0
220
0.0
230
1.0
  2
CwUnscalableHatchPattern_71_1.40
 70
     0
 71
     0
 91
        1
 92
        3
 72
     0
 73
     1
 93
        4
 10
2596.757014420241
 20
-408.652141535768
 10
2596.757014420241
 20
-572.6103782480686
 10
2626.75692661099
 20
-572.6103782480686
 10
2626.75692661099
 20
-408.6521415357687
 97
        0
 75
     0
 76
     2
 52
0.0
 41
1.0
 77
     0
 78
     2
 53
45.00000000000297
 43
0.0
 44
0.0
 45
-5.109999912977482
 46
5.109999912976954
 79
     2
 49
2.0
 49
-2.02
 53
45.00000000000297
 43
0.0
 44
5.109999912977218
 45
-5.109999912977482
 46
5.109999912976954
 79
     0
 98
        0
1001
ACAD
1010
0.0
1020
0.0
1030
0.0
  0
LWPOLYLINE
  5
306
330
1F
100
AcDbEntity
  8
Sc.1_5
  6
Continuous
 62
     7
370
    15
390
5F
100
AcDbPolyline
 90
        5
 70
     0
 43
0.0
 10
2596.757014420241
 20
-408.652141535768
 10
2596.757014420241
 20
-572.6103782480686
 10
2626.75692661099
 20
-572.6103782480686
 10
2626.75692661099
 20
-408.6521415357687
 10
2596.757014420241
 20
-408.652141535768
  0
LINE
  5
307
330
1F
100
AcDbEntity
  8
Sc.1_5
  6
Continuous
 62
     7
370
    15
390
5F
100
AcDbLine
 10
2606.072351903764
 20
-408.6521419429546
 30
0.0
 11
2608.572351722458
 21
-413.6521421267387
 31
0.0
  0
LINE
  5
308
330
1F
100
AcDbEntity
  8
Sc.1_5
  6
Continuous
 62
     7
370
    15
390
5F
100
AcDbLine
 10
2608.572351722458
 20
-413.6521421267387
 30
0.0
 11
2613.572352234078
 21
-403.6521421962845
 31
0.0
  0
LINE
  5
309
330
1F
100
AcDbEntity
  8
Sc.1_5
  6
Continuous
 62
     7
370
    15
390
5F
100
AcDbLine
 10
2613.572352234078
 20
-403.6521421962845
 30
0.0
 11
2616.072352052775
 21
-408.6521423800687
 31
0.0
  0
LINE
  5
30A
330
1F
100
AcDbEntity
  8
Sc.1_5
  6
Continuous
 62
     7
370
    15
390
5F
100
AcDbLine
 10
2616.072352052775
 20
-408.6521423800687
 30
0.0
 11
2632.688645274234
 21
-408.6521431063896
 31
0.0
  0
LINE
  5
30B
330
1F
100
AcDbEntity
  8
Sc.1_5
  6
Continuous
 62
     7
370
    15
390
5F
100
AcDbLine
 10
2587.441676936719
 20
-408.6521411285814
 30
0.0
 11
2606.072351903764
 21
-408.6521419429546
 31
0.0
  0
LINE
  5
30C
330
1F
100
AcDbEntity
  8
Sc.1_5
  6
Continuous
 62
     7
370
    15
390
5F
100
AcDbLine
 10
2606.072351903764
 20
-572.6103786552552
 30
0.0
 11
2608.572351722458
 21
-577.6103788390394
 31
0.0
  0
LINE
  5
30D
330
1F
100
AcDbEntity
  8
Sc.1_5
  6
Continuous
 62
     7
370
    15
390
5F
100
AcDbLine
 10
2608.572351722458
 20
-577.6103788390394
 30
0.0
 11
2613.572352234078
 21
-567.6103789085852
 31
0.0
  0
LINE
  5
30E
330
1F
100
AcDbEntity
  8
Sc.1_5
  6
Continuous
 62
     7
370
    15
390
5F
100
AcDbLine
 10
2613.572352234078
 20
-567.6103789085852
 30
0.0
 11
2616.072352052775
 21
-572.6103790923693
 31
0.0
  0
LINE
  5
30F
330
1F
100
AcDbEntity
  8
Sc.1_5
  6
Continuous
 62
     7
370
    15
390
5F
100
AcDbLine
 10
2616.072352052775
 20
-572.6103790923693
 30
0.0
 11
2632.688645274234
 21
-572.6103798186904
 31
0.0
  0
LINE
  5
310
330
1F
100
AcDbEntity
  8
Sc.1_5
  6
Continuous
 62
     7
370
    15
390
5F
100
AcDbLine
 10
2587.441676936719
 20
-572.610377840882
 30
0.0
 11
2606.072351903764
 21
-572.6103786552552
 31
0.0
  0
WIPEOUT
  5
311
330
1F
100
AcDbEntity
  8
Sc.1_5
  6
Continuous
390
5F
160
               152
310
98000000040000000C0000000E000000120000000C00000016000000000000C20C00000014000000010000006C00000007000000040000006DE106DEEF8BA4409C31794E462280C000000000000000006DE106DEEF8BA4409C31814E464280C000000000000000006DE105DEEF87A4409C31814E464280C000000000000000
310
006DE105DEEF87A4409C31794E462280C00000000000000000
100
AcDbWipeout
 90
        0
 10
2627.968490775841
 20
-520.2843294232621
 30
0.0
 11
4.000000059604645
 21
0.0
 31
0.0
 12
0.0
 22
4.000000059604645
 32
0.0
 13
1.0
 23
1.0
340
0
 70
     7
280
     1
281
    50
282
    50
283
     0
360
0
 71
     2
 91
        5
 14
0.0
 24
-0.5
 14
0.0
 24
0.5
 14
-0.5
 24
0.5
 14
-0.5
 24
-0.5
 14
0.0
 24
-0.5
290
     0
  0
LWPOLYLINE
  5
312
330
1F
100
AcDbEntity
  8
Sc.1_5
  6
Continuous
 62
     9
370
    15
390
5F
100
AcDbPolyline
 90
        5
 70
     0
 43
0.0
 10
2629.968490805643
 20
-516.2843293636574
 10
2629.968490805643
 20
-520.2843294232621
 10
2627.968490775841
 20
-520.2843294232621
 10
2627.968490775841
 20
-516.2843293636574
 10
2629.968490805643
 20
-516.2843293636574
  0
WIPEOUT
  5
313
330
1F
100
AcDbEntity
  8
Sc.1_5
  6
Continuous
390
5F
160
               152
310
98000000040000000C0000000E000000120000000C00000016000000000000C20C00000014000000010000006C00000007000000040000006EE105DEEF87A4401CECDD3D242980C0000000000000000055252476C151A4401CECDD3D242980C0000000000000000055252476C151A4401DEC1571573C80C000000000000000
310
006EE105DEEF87A4401DEC1571573C80C00000000000000000
100
AcDbWipeout
 90
        0
 10
2600.877854470784
 20
-519.5426961624794
 30
0.0
 11
27.09063630505671
 21
0.0
 31
0.0
 12
0.0
 22
27.09063630505671
 32
0.0
 13
1.0
 23
1.0
340
0
 70
     7
280
     1
281
    50
282
    50
283
     0
360
0
 71
     2
 91
        5
 14
0.5000000000000284
 24
0.411408502600775
 14
-0.4999999999999716
 24
0.411408502600775
 14
-0.4999999999999716
 24
0.5000000000000036
 14
0.5000000000000284
 24
0.5000000000000036
 14
0.5000000000000284
 24
0.411408502600775
290
     0
  0
LWPOLYLINE
  5
314
330
1F
100
AcDbEntity
  8
Sc.1_5
  6
Continuous
 62
     9
370
    15
390
5F
100
AcDbPolyline
 90
        5
 70
     0
 43
0.0
 10
2627.968490775841
 20
-517.1426961267166
 10
2600.877854470784
 20
-517.1426961267166
 10
2600.877854470784
 20
-519.5426961624794
 10
2627.968490775841
 20
-519.5426961624794
 10
2627.968490775841
 20
-517.1426961267166
  0
LINE
  5
315
330
1F
100
AcDbEntity
  8
Sc.1_5
  6
Continuous
 62
     9
370
    15
390
5F
100
AcDbLine
 10
2629.968490805643
 20
-519.334182093869
 30
0.0
 11
2627.968490775841
 21
-519.334182093869
 31
0.0
  0
LINE
  5
316
330
1F
100
AcDbEntity
  8
Sc.1_5
  6
Continuous
 62
     9
370
    15
390
5F
100
AcDbLine
 10
2629.968490805643
 20
-517.2674966325011
 30
0.0
 11
2627.968490775841
 21
-517.2674966325011
 31
0.0
  0
LINE
  5
317
330
1F
100
AcDbEntity
  8
Sc.1_5
  6
Continuous
 62
     9
370
    15
390
5F
100
AcDbLine
 10
2600.877854470784
 20
-519.5426961624794
 30
0.0
 11
2601.431938137743
 21
-517.1426961267166
 31
0.0
  0
LINE
  5
318
330
1F
100
AcDbEntity
  8
Sc.1_5
  6
Continuous
 62
     9
370
    15
390
5F
100
AcDbLine
 10
2601.401685298104
 20
-519.5426961624794
 30
0.0
 11
2601.95576896506
 21
-517.1426961267166
 31
0.0
  0
LINE
  5
319
330
1F
100
AcDbEntity
  8
Sc.1_5
  6
Continuous
 62
     9
370
    15
390
5F
100
AcDbLine
 10
2601.877854485685
 20
-519.5426961624794
 30
0.0
 11
2602.431938152644
 21
-517.1426961267166
 31
0.0
  0
LINE
  5
31A
330
1F
100
AcDbEntity
  8
Sc.1_5
  6
Continuous
 62
     9
370
    15
390
5F
100
AcDbLine
 10
2602.525785628468
 20
-519.5426961624794
 30
0.0
 11
2603.079869295424
 21
-517.1426961267166
 31
0.0
  0
LINE
  5
31B
330
1F
100
AcDbEntity
  8
Sc.1_5
  6
Continuous
 62
     9
370
    15
390
5F
100
AcDbLine
 10
2603.023601489057
 20
-519.5426961624794
 30
0.0
 11
2603.577685156014
 21
-517.1426961267166
 31
0.0
  0
LINE
  5
31C
330
1F
100
AcDbEntity
  8
Sc.1_5
  6
Continuous
 62
     9
370
    15
390
5F
100
AcDbLine
 10
2603.473241621204
 20
-519.5426961624794
 30
0.0
 11
2604.02732528816
 21
-517.1426961267166
 31
0.0
  0
LINE
  5
31D
330
1F
100
AcDbEntity
  8
Sc.1_5
  6
Continuous
 62
     9
370
    15
390
5F
100
AcDbLine
 10
2604.051350362532
 20
-519.5426961624794
 30
0.0
 11
2604.605434029491
 21
-517.1426961267166
 31
0.0
  0
LINE
  5
31E
330
1F
100
AcDbEntity
  8
Sc.1_5
  6
Continuous
 62
     9
370
    15
390
5F
100
AcDbLine
 10
2604.533107646974
 20
-519.5426961624794
 30
0.0
 11
2605.087191313933
 21
-517.1426961267166
 31
0.0
  0
LINE
  5
31F
330
1F
100
AcDbEntity
  8
Sc.1_5
  6
Continuous
 62
     9
370
    15
390
5F
100
AcDbLine
 10
2604.877854530389
 20
-519.5426961624794
 30
0.0
 11
2605.431938197347
 21
-517.1426961267166
 31
0.0
  0
LINE
  5
320
330
1F
100
AcDbEntity
  8
Sc.1_5
  6
Continuous
 62
     9
370
    15
390
5F
100
AcDbLine
 10
2605.448446487414
 20
-519.5426961624794
 30
0.0
 11
2606.002530154374
 21
-517.1426961267166
 31
0.0
  0
LINE
  5
321
330
1F
100
AcDbEntity
  8
Sc.1_5
  6
Continuous
 62
     9
370
    15
390
5F
100
AcDbLine
 10
2605.87785454529
 20
-519.5426961624794
 30
0.0
 11
2606.431938212248
 21
-517.1426961267166
 31
0.0
  0
LINE
  5
322
330
1F
100
AcDbEntity
  8
Sc.1_5
  6
Continuous
 62
     9
370
    15
390
5F
100
AcDbLine
 10
2606.379288636317
 20
-519.5426961624794
 30
0.0
 11
2606.933372303273
 21
-517.1426961267166
 31
0.0
  0
LINE
  5
323
330
1F
100
AcDbEntity
  8
Sc.1_5
  6
Continuous
 62
     9
370
    15
390
5F
100
AcDbLine
 10
2606.877854560191
 20
-519.5426961624794
 30
0.0
 11
2607.43193822715
 21
-517.1426961267166
 31
0.0
  0
LINE
  5
324
330
1F
100
AcDbEntity
  8
Sc.1_5
  6
Continuous
 62
     7
370
    15
390
5F
100
AcDbLine
 10
2606.072351903764
 20
-481.1336980425082
 30
0.0
 11
2608.572351722458
 21
-486.1336982262923
 31
0.0
  0
LINE
  5
325
330
1F
100
AcDbEntity
  8
Sc.1_5
  6
Continuous
 62
     7
370
    15
390
5F
100
AcDbLine
 10
2608.572351722458
 20
-486.1336982262923
 30
0.0
 11
2613.572352234078
 21
-476.1336982958381
 31
0.0
  0
LINE
  5
326
330
1F
100
AcDbEntity
  8
Sc.1_5
  6
Continuous
 62
     7
370
    15
390
5F
100
AcDbLine
 10
2613.572352234078
 20
-476.1336982958381
 30
0.0
 11
2616.072352052775
 21
-481.1336984796222
 31
0.0
  0
LINE
  5
327
330
1F
100
AcDbEntity
  8
Sc.1_5
  6
Continuous
 62
     7
370
    15
390
5F
100
AcDbLine
 10
2616.072352052775
 20
-481.1336984796222
 30
0.0
 11
2632.688645274234
 21
-481.1336992059432
 31
0.0
  0
LINE
  5
328
330
1F
100
AcDbEntity
  8
Sc.1_5
  6
Continuous
 62
     7
370
    15
390
5F
100
AcDbLine
 10
2587.441676936719
 20
-481.133697228135
 30
0.0
 11
2606.072351903764
 21
-481.1336980425082
 31
0.0
  0
LINE
  5
329
330
1F
100
AcDbEntity
  8
Sc.1_5
  6
Continuous
 62
     7
370
    15
390
5F
100
AcDbLine
 10
2606.072351903764
 20
-483.2919753198129
 30
0.0
 11
2608.572351722458
 21
-488.2919755035971
 31
0.0
  0
LINE
  5
32A
330
1F
100
AcDbEntity
  8
Sc.1_5
  6
Continuous
 62
     7
370
    15
390
5F
100
AcDbLine
 10
2608.572351722458
 20
-488.2919755035971
 30
0.0
 11
2613.572352234078
 21
-478.2919755731428
 31
0.0
  0
LINE
  5
32B
330
1F
100
AcDbEntity
  8
Sc.1_5
  6
Continuous
 62
     7
370
    15
390
5F
100
AcDbLine
 10
2613.572352234078
 20
-478.2919755731428
 30
0.0
 11
2616.072352052775
 21
-483.291975756927
 31
0.0
  0
LINE
  5
32C
330
1F
100
AcDbEntity
  8
Sc.1_5
  6
Continuous
 62
     7
370
    15
390
5F
100
AcDbLine
 10
2616.072352052775
 20
-483.291975756927
 30
0.0
 11
2632.688645274234
 21
-483.291976483248
 31
0.0
  0
LINE
  5
32D
330
1F
100
AcDbEntity
  8
Sc.1_5
  6
Continuous
 62
     7
370
    15
390
5F
100
AcDbLine
 10
2587.441676936719
 20
-483.2919745054397
 30
0.0
 11
2606.072351903764
 21
-483.2919753198129
 31
0.0
  0
LINE
  5
32E
330
1F
100
AcDbEntity
  8
Sc.1_5
  6
Continuous
 62
     7
 48
0.5
370
    15
390
5F
100
AcDbLine
 10
2684.952265333773
 20
-428.5227958057166
 30
500.0
 11
2673.047571229059
 21
-441.1023376813208
 31
500.0
  0
INSERT
  5
32F
330
1F
100
AcDbEntity
  8
Sc.1_5
 62
     7
370
    15
100
AcDbBlockReference
  2
cw-line-extremity2
 10
2673.047571229059
 20
-441.1023376813208
 30
0.0
 50
46.57881757702113
  0
LINE
  5
330
330
1F
100
AcDbEntity
  8
Sc.1_5
  6
Continuous
 62
     7
 48
0.5
370
    15
390
5F
100
AcDbLine
 10
2684.047624329674
 20
-501.8461738069956
 30
500.0
 11
2672.142930224961
 21
-514.4257156825997
 31
500.0
  0
INSERT
  5
331
330
1F
100
AcDbEntity
  8
Sc.1_5
 62
     7
370
    15
100
AcDbBlockReference
  2
cw-line-extremity2
 10
2672.142930224961
 20
-514.4257156825997
 30
0.0
 50
46.57881757702222
  0
DIMENSION
  5
333
102
{ACAD_REACTORS
330
334
102
}
330
1F
100
AcDbEntity
  8
Sc.1_5
  6
Continuous
 62
     7
370
     9
390
5F
100
AcDbDimension
280
     0
  2
*D70
 10
2630.356926298979
 20
-540.889834466425
 30
0.0
 11
2636.056926596284
 21
-538.7925236028933
 31
0.0
 70
   161
  1
bearing
 71
     5
 42
11.40000010711038
 73
     0
 74
     0
 75
     0
 53
-0.0000027895421354
  3
ISO-25
100
AcDbAlignedDimension
 13
2641.756926506476
 23
-537.8898348478947
 33
0.0
 14
2630.356926399365
 24
-537.889834466425
 34
0.0
1001
ACAD
1000
DSTYLE
1002
{
1070
   178
1070
     7
1070
   271
1070
     0
1070
   147
1040
0.0
1070
   140
1040
2.1
1070
   340
1005
332
1070
   144
1040
1.0
1070
    42
1040
0.0
1070
    44
1040
1.0
1070
    41
1040
1.0
1070
   342
1005
198
1070
   175
1070
     1
1070
   279
1070
     2
1002
}
  0
TEXT
  5
343
330
1F
100
AcDbEntity
  8
LEGEND
  6
Continuous
 62
     7
390
5F
100
AcDbText
 10
2744.933356513237
 20
-620.9062576811848
 30
0.0
 40
1.6
  1
Date
  7
tahoma-
100
AcDbText
  0
TEXT
  5
344
330
1F
100
AcDbEntity
  8
LEGEND
  6
Continuous
 62
     7
390
5F
100
AcDbText
 10
2730.02510783681
 20
-629.5374384244351
 30
0.0
 40
1.6
  1
Detail
  7
tahoma-
100
AcDbText
  0
TEXT
  5
345
330
1F
100
AcDbEntity
  8
LEGEND
  6
Continuous
 62
     7
390
5F
100
AcDbText
 10
2733.452723076733
 20
-625.3474102888576
 30
0.0
 40
2.8
  1
1.0
  7
tahoma-
100
AcDbText
  0
TEXT
  5
346
330
1F
100
AcDbEntity
  8
LEGEND
  6
Continuous
 62
     7
390
5F
100
AcDbText
 10
2730.02510783681
 20
-620.9062576811848
 30
0.0
 40
1.6
  1
Version
  7
tahoma-
100
AcDbText
  0
TEXT
  5
347
330
1F
100
AcDbEntity
  8
LEGEND
  6
Continuous
 62
     7
390
5F
100
AcDbText
 10
2658.028181070006
 20
-625.480257681178
 30
0.0
 40
4.0
  1
PLT to steel supports II
 41
0.95
  7
tahoma-
100
AcDbText
  0
TEXT
  5
348
330
1F
100
AcDbEntity
  8
LEGEND
  6
Continuous
 62
     7
390
5F
100
AcDbText
 10
2599.084316530826
 20
-620.9062576811848
 30
0.0
 40
1.6
  1
Phone:
  7
tahoma-
100
AcDbText
  0
TEXT
  5
349
330
1F
100
AcDbEntity
  8
LEGEND
  6
Continuous
 62
     7
390
5F
100
AcDbText
 10
2599.084316530826
 20
-625.0270448433439
 30
0.0
 40
1.6
  1
Email:
  7
tahoma-
100
AcDbText
  0
TEXT
  5
34A
330
1F
100
AcDbEntity
  8
LEGEND
  6
Continuous
 62
     7
390
5F
100
AcDbText
 10
2599.084316530826
 20
-629.1478320055321
 30
0.0
 40
1.6
  1
Web:
  7
tahoma-
100
AcDbText
  0
TEXT
  5
34B
330
1F
100
AcDbEntity
  8
LEGEND
  6
Continuous
 62
     7
390
5F
100
AcDbText
 10
2608.986297500033
 20
-621.7062576811732
 30
0.0
 40
2.4
  1
06 755 9000
  7
tahoma-
100
AcDbText
  0
TEXT
  5
34C
330
1F
100
AcDbEntity
  8
LEGEND
  6
Continuous
 62
     7
390
5F
100
AcDbText
 10
2608.986297500033
 20
-625.8270448433468
 30
0.0
 40
2.4
  1
info@woodspan.co.nz
  7
tahoma-
100
AcDbText
  0
TEXT
  5
34D
330
1F
100
AcDbEntity
  8
LEGEND
  6
Continuous
 62
     7
390
5F
100
AcDbText
 10
2608.986297500033
 20
-629.9478320055205
 30
0.0
 40
2.4
  1
www.woodspan.co.nz
  7
tahoma-
100
AcDbText
  0
TEXT
  5
34E
330
1F
100
AcDbEntity
  8
LEGEND
  6
Continuous
 62
     7
390
5F
100
AcDbText
 10
2599.036682246488
 20
-634.0686191677087
 30
0.0
 40
2.4
  1
Connett Road, Bell Block, New Plymouth
  7
tahoma-
100
AcDbText
  0
TEXT
  5
34F
330
1F
100
AcDbEntity
  8
LEGEND
  6
Continuous
 62
     7
390
5F
100
AcDbText
 10
2746.019005984529
 20
-625.1474102888751
 30
0.0
 40
2.4
  1
20.12.2021
  7
tahoma-
100
AcDbText
  0
TEXT
  5
350
330
1F
100
AcDbEntity
  8
LEGEND
  6
Continuous
 62
     7
390
5F
100
AcDbText
 10
2738.818087435533
 20
-633.403846910529
 30
0.0
 40
4.0
  1
PLT 1.5
 41
0.95
  7
tahoma-
100
AcDbText
  0
TEXT
  5
351
330
1F
100
AcDbEntity
  8
LEGEND
  6
Continuous
 62
     7
390
5F
100
AcDbText
 10
2650.659541499223
 20
-615.9458707938757
 30
0.0
 40
2.4
  1
Indicative details only
  7
tahoma-
100
AcDbText
  0
MTEXT
  5
352
330
1F
100
AcDbEntity
  8
Sc.1_5
  6
Continuous
 62
     7
390
5F
100
AcDbMText
 10
2681.310954528241
 20
-480.0509582697944
 30
0.0
 40
2.5
 41
0.0
 46
0.0
 71
     1
 72
     1
  1
\A1;\fTahoma|b0|i0;\W0.800000;\H2.500000;Fixing types and spacing
  7
tahoma-
 73
     1
 44
1.0
 90
        3
 63
     9
421
 13158600
 45
1.15
441
 33554687
  0
MTEXT
  5
353
330
1F
100
AcDbEntity
  8
Sc.1_5
  6
Continuous
 62
     7
390
5F
100
AcDbMText
 10
2691.763128905683
 20
-483.5509582697944
 30
0.0
 40
2.5
 41
0.0
 46
0.0
 71
     1
 72
     1
  1
\A1;\fTahoma|b0|i0;\W0.800000;\H2.500000;as per engineer
  7
tahoma-
 73
     1
 44
1.0
 90
        3
 63
     9
421
 13158600
 45
1.15
441
 33554687
  0
MTEXT
  5
354
330
1F
100
AcDbEntity
  8
Sc.1_5
  6
Continuous
 62
     7
390
5F
100
AcDbMText
 10
2641.20772722831
 20
-479.1729035441949
 30
0.0
 40
2.5
 41
0.0
 46
0.0
 71
     1
 72
     1
  1
\A1;\fTahoma|b0|i0;\W0.800000;\H2.500000;Structural steel supports
  7
tahoma-
 73
     1
 44
1.0
 90
        3
 63
     9
421
 13158600
 45
1.15
441
 33554687
  0
MTEXT
  5
355
330
1F
100
AcDbEntity
  8
Sc.1_5
  6
Continuous
 62
     7
390
5F
100
AcDbMText
 10
2641.20772722831
 20
-482.6729035441949
 30
0.0
 40
2.5
 41
0.0
 46
0.0
 71
     1
 72
     1
  1
\A1;\fTahoma|b0|i0;\W0.800000;\H2.500000;as per engineer
  7
tahoma-
 73
     1
 44
1.0
 90
        3
 63
     9
421
 13158600
 45
1.15
441
 33554687
  0
MTEXT
  5
356
330
1F
100
AcDbEntity
  8
Sc.1_5
  6
Continuous
 62
     7
390
5F
100
AcDbMText
 10
2614.213658672203
 20
-574.7007590070593
 30
0.0
 40
2.5
 41
0.0
 46
0.0
 71
     1
 72
     1
  1
\A1;\fTahoma|b0|i0;\W0.800000;\H2.500000;reinforced concrete wall
  7
tahoma-
 73
     1
 44
1.0
 90
        3
 63
     9
421
 13158600
 45
1.15
441
 33554687
  0
TEXT
  5
358
330
1F
100
AcDbEntity
  8
Sc.1_5
  6
Continuous
 62
     7
390
5F
100
AcDbText
 10
2685.421075571209
 20
-429.7727958057166
 30
0.0
 40
2.5
  1
Woodspan PLT floor panel
 41
0.8
  7
tahoma-b
100
AcDbText
  0
TEXT
  5
359
330
1F
100
AcDbEntity
  8
Sc.1_5
  6
Continuous
 62
     7
390
5F
100
AcDbText
 10
2685.589539571893
 20
-433.1347722730297
 30
0.0
 40
2.5
  1
all fixings as per engineer's details
 41
0.8
  7
tahoma-
100
AcDbText
  0
TEXT
  5
35A
330
1F
100
AcDbEntity
  8
Sc.1_5
  6
Continuous
 62
     7
390
5F
100
AcDbText
 10
2684.516434567111
 20
-503.0961738069956
 30
0.0
 40
2.5
  1
Woodspan PLT floor panel
 41
0.8
  7
tahoma-b
100
AcDbText
  0
TEXT
  5
35B
330
1F
100
AcDbEntity
  8
Sc.1_5
  6
Continuous
 62
     7
390
5F
100
AcDbText
 10
2684.684898567795
 20
-506.4581502743088
 30
0.0
 40
2.5
  1
all fixings as per engineer's details
 41
0.8
  7
tahoma-
100
AcDbText
  0
VIEWPORT
  5
220
330
21A
100
AcDbEntity
 67
     1
  8
0
  6
Continuous
390
5F
100
AcDbViewport
 10
98.8
 20
135.8
 30
0.0
 40
209.0608
 41
287.3528000000001
 68
     1
 69
     1
 12
128.5
 22
97.5
 13
0.0
 23
0.0
 14
10.0
 24
10.0
 15
10.0
 25
10.0
 16
0.0
 26
0.0
 36
1.0
 17
0.0
 27
0.0
 37
0.0
 42
50.0
 43
0.0
 44
0.0
 45
222.18
 50
0.0
 51
0.0
 72
   100
 90
   557152
  1

281
     0
 71
     1
 74
     0
110
0.0
120
0.0
130
0.0
111
1.0
121
0.0
131
0.0
112
0.0
122
1.0
132
0.0
 79
     0
146
0.0
170
     0
 61
     5
348
2F
292
     1
282
     1
141
0.0
142
0.0
 63
   256
361
221
  0
VIEWPORT
  5
222
330
21A
100
AcDbEntity
 67
     1
  8
0
  6
Continuous
 60
     1
390
5F
100
AcDbViewport
 10
98.8
 20
135.8
 30
0.0
 40
197.6
 41
271.6
 68
     2
 69
     2
 12
2665.049106967057
 22
-500.0686191677087
 13
0.0
 23
0.0
 14
10.0
 24
10.0
 15
10.0
 25
10.0
 16
0.0
 26
0.0
 36
1.0
 17
0.0
 27
0.0
 37
0.0
 42
50.0
 43
0.0
 44
0.0
 45
271.6
 50
0.0
 51
0.0
 72
   100
 90
   557152
  1

281
     0
 71
     1
 74
     0
110
0.0
120
0.0
130
0.0
111
1.0
121
0.0
131
0.0
112
0.0
122
1.0
132
0.0
 79
     0
146
0.0
170
     0
 61
     5
348
2F
292
     1
282
     1
141
0.0
142
0.0
 63
   256
  0
ENDSEC
  0
SECTION
  2
OBJECTS
  0
DICTIONARY
  5
C
330
0
100
AcDbDictionary
281
     1
  3
ACAD_DETAILVIEWSTYLE
350
363
  3
ACAD_GROUP
350
D
  3
ACAD_IMAGE_VARS
350
60
  3
ACAD_LAYOUT
350
1A
  3
ACAD_MATERIAL
350
43
  3
ACAD_MLEADERSTYLE
350
5B
  3
ACAD_MLINESTYLE
350
17
  3
ACAD_PLOTSETTINGS
350
19
  3
ACAD_PLOTSTYLENAME
350
E
  3
ACAD_SCALELIST
350
47
  3
ACAD_SECTIONVIEWSTYLE
350
364
  3
ACAD_TABLESTYLE
350
59
  3
ACAD_VISUALSTYLE
350
2A
  3
ACAD_WIPEOUT_VARS
350
61
  3
ACDB_RECOMPOSE_DATA
350
360
  3
AcDbVariableDictionary
350
35C
  0
SUN
  5
5D
330
29
100
AcDbSun
 90
        1
290
     0
 63
     7
421
 16777215
 40
1.0
291
     1
 91
  2455826
 92
 54000000
292
     0
 70
     2
 71
   256
280
     1
  0
SUN
  5
221
330
220
100
AcDbSun
 90
        1
290
     0
 63
     7
421
 16777215
 40
1.0
291
     1
 91
  2455826
 92
 54000000
292
     0
 70
     2
 71
   256
280
     1
  0
DICTIONARY
  5
363
102
{ACAD_REACTORS
330
C
102
}
330
C
100
AcDbDictionary
281
     1
  0
DICTIONARY
  5
D
102
{ACAD_REACTORS
330
C
102
}
330
C
100
AcDbDictionary
281
     1
  3
DIM57
350
334
  0
RASTERVARIABLES
  5
60
102
{ACAD_REACTORS
330
C
102
}
330
C
100
AcDbRasterVariables
 90
        0
 70
     0
 71
     1
 72
     1
  0
DICTIONARY
  5
1A
102
{ACAD_REACTORS
330
C
102
}
330
C
100
AcDbDictionary
281
     1
  3
CompleteLayout
350
1E
  3
Model
350
22
  3
PrintFrame_23
350
21B
  0
DICTIONARY
  5
43
102
{ACAD_REACTORS
330
C
102
}
330
C
100
AcDbDictionary
281
     1
  3
ByBlock
350
45
  3
ByLayer
350
44
  3
Global
350
46
  0
DICTIONARY
  5
5B
102
{ACAD_REACTORS
330
C
102
}
330
C
100
AcDbDictionary
281
     1
  3
Standard
350
5C
  0
DICTIONARY
  5
17
102
{ACAD_REACTORS
330
C
102
}
330
C
100
AcDbDictionary
281
     1
  3
Standard
350
18
  0
DICTIONARY
  5
19
102
{ACAD_REACTORS
330
C
102
}
330
C
100
AcDbDictionary
281
     1
  3
PlotSettings_
350
21E
  0
ACDBDICTIONARYWDFLT
  5
E
102
{ACAD_REACTORS
330
C
102
}
330
C
100
AcDbDictionary
281
     1
  3
flat
350
5F
  3
Normal
350
F
100
AcDbDictionaryWithDefault
340
F
  0
DICTIONARY
  5
47
102
{ACAD_REACTORS
330
C
102
}
330
C
100
AcDbDictionary
281
     1
  3
A0
350
48
  3
A1
350
49
  3
A2
350
4A
  3
A3
350
4B
  3
A4
350
4C
  3
A5
350
4D
  3
A6
350
4E
  3
A7
350
4F
  3
A8
350
50
  3
A9
350
51
  3
B0
350
52
  3
B1
350
53
  3
B2
350
54
  3
B3
350
55
  3
B4
350
56
  3
B5
350
57
  3
B6
350
58
  0
DICTIONARY
  5
364
102
{ACAD_REACTORS
330
C
102
}
330
C
100
AcDbDictionary
281
     1
  0
DICTIONARY
  5
59
102
{ACAD_REACTORS
330
C
102
}
330
C
100
AcDbDictionary
281
     1
  3
Standard
350
5A
  0
DICTIONARY
  5
2A
102
{ACAD_REACTORS
330
C
102
}
330
C
100
AcDbDictionary
281
     1
  3
2dWireframe
350
2F
  3
Basic
350
32
  3
Brighten
350
36
  3
ColorChange
350
3A
  3
Conceptual
350
34
  3
Dim
350
35
  3
EdgeColorOff
350
3D
  3
Facepattern
350
39
  3
Flat
350
2B
  3
FlatWithEdges
350
2C
  3
Gouraud
350
2D
  3
GouraudWithEdges
350
2E
  3
Hidden
350
31
  3
JitterOff
350
3B
  3
Linepattern
350
38
  3
OverhangOff
350
3C
  3
Realistic
350
33
  3
Shaded
350
42
  3
Shaded with edges
350
41
  3
Shades of Gray
350
3E
  3
Sketchy
350
3F
  3
Thicken
350
37
  3
Wireframe
350
30
  3
X-Ray
350
40
  0
WIPEOUTVARIABLES
  5
61
102
{ACAD_REACTORS
330
C
102
}
330
C
100
AcDbWipeoutVariables
 70
     0
  0
XRECORD
  5
360
102
{ACAD_REACTORS
330
C
102
}
330
C
100
AcDbXrecord
280
     1
 90
        1
330
5A
  0
DICTIONARY
  5
35C
102
{ACAD_REACTORS
330
C
102
}
330
C
100
AcDbDictionary
281
     1
  3
CANNOSCALE
350
35D
  3
CENTEREXE
350
366
  3
CENTERLTYPEFILE
350
367
  3
CMLEADERSTYLE
350
362
  3
CTABLESTYLE
350
361
  3
WIPEOUTFRAME
350
365
  0
GROUP
  5
334
102
{ACAD_REACTORS
330
D
102
}
330
D
100
AcDbGroup
300

 70
     0
 71
     1
340
333
  0
LAYOUT
  5
1E
102
{ACAD_REACTORS
330
1A
102
}
330
1A
100
AcDbPlotSettings
  1

  2
none_device
  4

  6

 40
0.0
 41
0.0
 42
0.0
 43
0.0
 44
0.0
 45
0.0
 46
0.0
 47
0.0
 48
0.0
 49
0.0
140
0.0
141
0.0
142
1.0
143
1.0
 70
   688
 72
     1
 73
     0
 74
     5
  7

 75
    16
 76
     0
 77
     2
 78
   300
147
1.0
148
0.0
149
0.0
100
AcDbLayout
  1
CompleteLayout
 70
     1
 71
     1
 10
0.0
 20
0.0
 11
420.0
 21
297.0
 12
0.0
 22
0.0
 32
0.0
 14
1.000000000000000E+20
 24
1.000000000000000E+20
 34
1.000000000000000E+20
 15
-1.000000000000000E+20
 25
-1.000000000000000E+20
 35
-1.000000000000000E+20
146
0.0
 13
0.0
 23
0.0
 33
0.0
 16
1.0
 26
0.0
 36
0.0
 17
0.0
 27
1.0
 37
0.0
 76
     0
330
1B
  0
LAYOUT
  5
22
102
{ACAD_REACTORS
330
1A
102
}
330
1A
100
AcDbPlotSettings
  1

  2
none_device
  4
Letter_(8.50_x_11.00_Inches)
  6

 40
6.35
 41
6.35
 42
6.35000508
 43
6.35000508
 44
215.9
 45
279.4
 46
0.0
 47
0.0
 48
0.0
 49
0.0
140
0.0
141
0.0
142
1.0
143
1.0
 70
  1712
 72
     1
 73
     0
 74
     0
  7

 75
     0
 76
     0
 77
     2
 78
   300
147
1.0
148
0.0
149
0.0
100
AcDbLayout
  1
Model
 70
     1
 71
     0
 10
0.0
 20
0.0
 11
420.0
 21
297.0
 12
0.0
 22
0.0
 32
0.0
 14
2566.549106967057
 24
-635.5686191677087
 34
-176.5050807568871
 15
2763.549106967057
 25
-364.5686191677087
 35
548.639990234375
146
0.0
 13
0.0
 23
0.0
 33
0.0
 16
1.0
 26
0.0
 36
0.0
 17
0.0
 27
1.0
 37
0.0
 76
     0
330
1F
331
29
  0
LAYOUT
  5
21B
102
{ACAD_REACTORS
330
1A
102
}
330
1A
100
AcDbPlotSettings
  1
PlotSettings_
  2
Custom Device
  4
Custom_210.000000x297.000000_12.700000_12.700000_6.200000_6.200000
  6

 40
6.2
 41
12.7
 42
6.2
 43
12.7
 44
210.0
 45
297.0
 46
0.0000000000000142
 47
0.0
 48
0.0
 49
0.0
140
197.6
141
271.6
142
1.0
143
1.0
 70
   756
 72
     1
 73
     0
 74
     4
  7

 75
     0
 76
     0
 77
     2
 78
   300
147
1.0
148
0.0
149
0.0
100
AcDbLayout
  1
PrintFrame_23
 70
     0
 71
     2
 10
-20.0
 20
-7.5
 11
277.0
 21
202.5
 12
0.0
 22
0.0
 32
0.0
 14
-5.730400000000003
 24
-7.876400000000018
 34
0.0
 15
203.3304
 25
279.4764
 35
0.0
146
0.0
 13
0.0
 23
0.0
 33
0.0
 16
1.0
 26
0.0
 36
0.0
 17
0.0
 27
1.0
 37
0.0
 76
     0
330
21A
331
220
1001
PLOTTRANSPARENCY
1071
        1
1000
layout-user-created
1070
     1
1000
layout-line-weight-scale
1042
1.0
  0
MATERIAL
  5
45
102
{ACAD_REACTORS
330
43
102
}
330
43
100
AcDbMaterial
  1
ByBlock
 72
     1
 94
      127
  0
MATERIAL
  5
44
102
{ACAD_REACTORS
330
43
102
}
330
43
100
AcDbMaterial
  1
ByLayer
 72
     1
 94
      127
  0
MATERIAL
  5
46
102
{ACAD_REACTORS
330
43
102
}
330
43
100
AcDbMaterial
  1
Global
 72
     1
 94
      127
  0
MLEADERSTYLE
  5
5C
102
{ACAD_REACTORS
330
5B
102
}
330
5B
100
AcDbMLeaderStyle
179
     2
170
     2
171
     1
172
     0
 90
        2
 40
0.0
 41
0.0
173
     1
 91
-1056964608
340
14
 92
       -2
290
     1
 42
2.0
291
     1
 43
8.0
  3
Standard
341
0
 44
4.0
300

342
11
174
     1
178
     6
175
     1
176
     0
 93
-1056964608
 45
4.0
292
     0
297
     0
 46
4.0
343
0
 94
-1056964608
 47
1.0
 49
1.0
140
1.0
293
     1
141
0.0
294
     1
177
     0
142
1.0
295
     0
296
     0
143
3.75
271
     0
272
     9
273
     9
298
     0
  0
MLINESTYLE
  5
18
102
{ACAD_REACTORS
330
17
102
}
330
17
100
AcDbMlineStyle
  2
Standard
 70
     0
  3

 62
   256
 51
90.0
 52
90.0
 71
     2
 49
0.5
 62
   256
  6
BYLAYER
 49
-0.5
 62
   256
  6
BYLAYER
  0
PLOTSETTINGS
  5
21E
102
{ACAD_REACTORS
330
19
102
}
330
19
100
AcDbPlotSettings
  1
PlotSettings_
  2
Custom Device
  4
Custom_210.000000x297.000000_12.700000_12.700000_6.200000_6.200000
  6

 40
6.2
 41
12.7
 42
6.2
 43
12.7
 44
210.0
 45
297.0
 46
0.0000000000000142
 47
0.0
 48
0.0
 49
0.0
140
197.6
141
271.6
142
1.0
143
1.0
 70
   756
 72
     1
 73
     0
 74
     4
  7

 75
     0
 76
     0
 77
     2
 78
   300
147
1.0
148
0.0
149
0.0
1001
PLOTTRANSPARENCY
1071
        1
1000
layout-user-created
1070
     1
1000
layout-line-weight-scale
1042
1.0
  0
ACDBPLACEHOLDER
  5
5F
102
{ACAD_REACTORS
330
E
102
}
330
E
  0
ACDBPLACEHOLDER
  5
F
102
{ACAD_REACTORS
330
E
102
}
330
E
  0
SCALE
  5
48
102
{ACAD_REACTORS
330
47
102
}
330
47
100
AcDbScale
 70
     0
300
1:1
140
1.0
141
1.0
290
     1
  0
SCALE
  5
49
102
{ACAD_REACTORS
330
47
102
}
330
47
100
AcDbScale
 70
     0
300
1:2
140
1.0
141
2.0
290
     0
  0
SCALE
  5
4A
102
{ACAD_REACTORS
330
47
102
}
330
47
100
AcDbScale
 70
     0
300
1:4
140
1.0
141
4.0
290
     0
  0
SCALE
  5
4B
102
{ACAD_REACTORS
330
47
102
}
330
47
100
AcDbScale
 70
     0
300
1:5
140
1.0
141
5.0
290
     0
  0
SCALE
  5
4C
102
{ACAD_REACTORS
330
47
102
}
330
47
100
AcDbScale
 70
     0
300
1:8
140
1.0
141
8.0
290
     0
  0
SCALE
  5
4D
102
{ACAD_REACTORS
330
47
102
}
330
47
100
AcDbScale
 70
     0
300
1:10
140
1.0
141
10.0
290
     0
  0
SCALE
  5
4E
102
{ACAD_REACTORS
330
47
102
}
330
47
100
AcDbScale
 70
     0
300
1:16
140
1.0
141
16.0
290
     0
  0
SCALE
  5
4F
102
{ACAD_REACTORS
330
47
102
}
330
47
100
AcDbScale
 70
     0
300
1:20
140
1.0
141
20.0
290
     0
  0
SCALE
  5
50
102
{ACAD_REACTORS
330
47
102
}
330
47
100
AcDbScale
 70
     0
300
1:30
140
1.0
141
30.0
290
     0
  0
SCALE
  5
51
102
{ACAD_REACTORS
330
47
102
}
330
47
100
AcDbScale
 70
     0
300
1:40
140
1.0
141
40.0
290
     0
  0
SCALE
  5
52
102
{ACAD_REACTORS
330
47
102
}
330
47
100
AcDbScale
 70
     0
300
1:50
140
1.0
141
50.0
290
     0
  0
SCALE
  5
53
102
{ACAD_REACTORS
330
47
102
}
330
47
100
AcDbScale
 70
     0
300
1:100
140
1.0
141
100.0
290
     0
  0
SCALE
  5
54
102
{ACAD_REACTORS
330
47
102
}
330
47
100
AcDbScale
 70
     0
300
2:1
140
2.0
141
1.0
290
     0
  0
SCALE
  5
55
102
{ACAD_REACTORS
330
47
102
}
330
47
100
AcDbScale
 70
     0
300
4:1
140
4.0
141
1.0
290
     0
  0
SCALE
  5
56
102
{ACAD_REACTORS
330
47
102
}
330
47
100
AcDbScale
 70
     0
300
8:1
140
8.0
141
1.0
290
     0
  0
SCALE
  5
57
102
{ACAD_REACTORS
330
47
102
}
330
47
100
AcDbScale
 70
     0
300
10:1
140
10.0
141
1.0
290
     0
  0
SCALE
  5
58
102
{ACAD_REACTORS
330
47
102
}
330
47
100
AcDbScale
 70
     0
300
100:1
140
100.0
141
1.0
290
     0
  0
TABLESTYLE
  5
5A
102
{ACAD_REACTORS
330
59
102
}
102
{ACAD_XDICTIONARY
360
35E
102
}
330
59
100
AcDbTableStyle
  3
Standard
 70
     0
 71
     0
 40
0.06
 41
0.06
280
     0
281
     0
  7
Standard
140
4.5
170
     2
 62
     0
 63
   257
283
     0
 90
        4
 91
        0
  1

274
    -2
284
     1
 64
     0
275
    -2
285
     1
 65
     0
276
    -2
286
     1
 66
     0
277
    -2
287
     1
 67
     0
278
    -2
288
     1
 68
     0
279
    -2
289
     1
 69
     0
  7
Standard
140
6.0
170
     5
 62
     0
 63
   257
283
     0
 90
        4
 91
        0
  1

274
    -2
284
     1
 64
     0
275
    -2
285
     1
 65
     0
276
    -2
286
     1
 66
     0
277
    -2
287
     1
 67
     0
278
    -2
288
     1
 68
     0
279
    -2
289
     1
 69
     0
  7
Standard
140
4.5
170
     5
 62
     0
 63
   257
283
     0
 90
        4
 91
        0
  1

274
    -2
284
     1
 64
     0
275
    -2
285
     1
 65
     0
276
    -2
286
     1
 66
     0
277
    -2
287
     1
 67
     0
278
    -2
288
     1
 68
     0
279
    -2
289
     1
 69
     0
  0
VISUALSTYLE
  5
2F
102
{ACAD_REACTORS
330
2A
102
}
330
2A
100
AcDbVisualStyle
  2
2dWireframe
 70
     4
177
     3
291
     0
 70
    58
 90
        0
176
     1
 90
        2
176
     1
 90
        0
176
     1
 90
        0
176
     1
 40
0.6
176
     1
 40
30.0
176
     1
 62
     7
420
 16777215
176
     1
 90
        1
176
     1
 90
        4
176
     1
 62
     7
176
     1
 62
   257
176
     1
 90
        1
176
     1
 90
        1
176
     1
 40
1.0
176
     1
 90
        0
176
     1
 62
   257
176
     1
 40
1.0
176
     1
 90
        1
176
     1
 90
        6
176
     1
 90
        2
176
     1
 62
     7
176
     1
 90
        5
176
     1
 90
        0
176
     1
 90
        0
176
     1
290
     0
176
     1
 90
        1
176
     1
 40
0.0
176
     1
 90
        0
176
     1
290
     1
176
     1
290
     1
176
     1
290
     0
176
     1
290
     0
176
     1
290
     0
176
     1
290
     0
176
     1
290
     0
176
     1
290
     0
176
     1
290
     0
176
     1
 90
       50
176
     1
 40
0.0
176
     1
 40
1.0
176
     1
 90
        0
176
     1
 62
    18
420
        0
176
     1
 90
       50
176
     1
 90
        3
176
     1
 62
     5
420
      255
176
     1
290
     0
176
     1
 90
       50
176
     1
 90
       50
176
     1
 90
       50
176
     1
290
     0
176
     1
 90
       50
176
     1
 62
   256
176
     0
 40
1.0
176
     0
 90
        2
176
     1
  1
strokes_ogs.tif
176
     1
290
     0
176
     1
 40
1.0
176
     1
 40
1.0
176
     1
  0
VISUALSTYLE
  5
32
102
{ACAD_REACTORS
330
2A
102
}
330
2A
100
AcDbVisualStyle
  2
Basic
 70
     7
177
     3
291
     1
 70
    58
 90
        1
176
     1
 90
        0
176
     1
 90
        1
176
     1
 90
        0
176
     1
 40
0.6
176
     1
 40
30.0
176
     1
 62
     7
420
 16777215
176
     1
 90
        0
176
     1
 90
        4
176
     1
 62
     7
176
     1
 62
   257
176
     1
 90
        1
176
     1
 90
        1
176
     1
 40
1.0
176
     1
 90
        8
176
     1
 62
     7
176
     1
 40
1.0
176
     1
 90
        1
176
     1
 90
        6
176
     1
 90
        2
176
     1
 62
     7
176
     1
 90
        5
176
     1
 90
        0
176
     1
 90
        0
176
     1
290
     0
176
     1
 90
        1
176
     1
 40
0.0
176
     1
 90
        0
176
     1
290
     0
176
     1
290
     1
176
     1
290
     1
176
     1
290
     0
176
     1
290
     0
176
     1
290
     0
176
     1
290
     0
176
     1
290
     0
176
     1
290
     0
176
     1
 90
       50
176
     1
 40
0.0
176
     1
 40
1.0
176
     1
 90
        0
176
     1
 62
    18
420
        0
176
     1
 90
       50
176
     1
 90
        3
176
     1
 62
     5
420
      255
176
     1
290
     0
176
     1
 90
       50
176
     1
 90
       50
176
     1
 90
       50
176
     1
290
     0
176
     1
 90
       50
176
     1
 62
   256
176
     0
 40
1.0
176
     0
 90
        2
176
     1
  1
strokes_ogs.tif
176
     1
290
     0
176
     1
 40
1.0
176
     1
 40
1.0
176
     1
  0
VISUALSTYLE
  5
36
102
{ACAD_REACTORS
330
2A
102
}
330
2A
100
AcDbVisualStyle
  2
Brighten
 70
    12
177
     3
291
     1
 70
    58
 90
        2
176
     1
 90
        2
176
     1
 90
        0
176
     1
 90
        0
176
     1
 40
0.6
176
     1
 40
30.0
176
     1
 62
     7
420
 16777215
176
     1
 90
        1
176
     1
 90
        4
176
     1
 62
     7
176
     1
 62
   257
176
     1
 90
        1
176
     1
 90
        1
176
     1
 40
1.0
176
     1
 90
        8
176
     1
 62
     7
176
     1
 40
1.0
176
     1
 90
        1
176
     1
 90
        6
176
     1
 90
        2
176
     1
 62
     7
176
     1
 90
        5
176
     1
 90
        0
176
     1
 90
        0
176
     1
290
     0
176
     1
 90
        1
176
     1
 40
50.0
176
     1
 90
        0
176
     1
290
     0
176
     1
290
     1
176
     1
290
     1
176
     1
290
     0
176
     1
290
     0
176
     1
290
     0
176
     1
290
     0
176
     1
290
     0
176
     1
290
     0
176
     1
 90
       50
176
     1
 40
0.0
176
     1
 40
1.0
176
     1
 90
        0
176
     1
 62
    18
420
        0
176
     1
 90
       50
176
     1
 90
        3
176
     1
 62
     5
420
      255
176
     1
290
     0
176
     1
 90
       50
176
     1
 90
       50
176
     1
 90
       50
176
     1
290
     0
176
     1
 90
       50
176
     1
 62
   256
176
     0
 40
1.0
176
     0
 90
        2
176
     1
  1
strokes_ogs.tif
176
     1
290
     0
176
     1
 40
1.0
176
     1
 40
1.0
176
     1
  0
VISUALSTYLE
  5
3A
102
{ACAD_REACTORS
330
2A
102
}
330
2A
100
AcDbVisualStyle
  2
ColorChange
 70
    16
177
     3
291
     1
 70
    58
 90
        2
176
     1
 90
        2
176
     1
 90
        3
176
     1
 90
        0
176
     1
 40
0.6
176
     1
 40
30.0
176
     1
 62
     8
420
  8421504
176
     1
 90
        1
176
     1
 90
        4
176
     1
 62
     7
176
     1
 62
   257
176
     1
 90
        1
176
     1
 90
        1
176
     1
 40
1.0
176
     1
 90
        8
176
     1
 62
     8
420
  8421504
176
     1
 40
1.0
176
     1
 90
        1
176
     1
 90
        6
176
     1
 90
        2
176
     1
 62
     7
176
     1
 90
        5
176
     1
 90
        0
176
     1
 90
        0
176
     1
290
     0
176
     1
 90
        1
176
     1
 40
0.0
176
     1
 90
        0
176
     1
290
     0
176
     1
290
     1
176
     1
290
     1
176
     1
290
     0
176
     1
290
     0
176
     1
290
     0
176
     1
290
     0
176
     1
290
     0
176
     1
290
     0
176
     1
 90
       50
176
     1
 40
0.0
176
     1
 40
1.0
176
     1
 90
        0
176
     1
 62
    18
420
        0
176
     1
 90
       50
176
     1
 90
        3
176
     1
 62
     5
420
      255
176
     1
290
     0
176
     1
 90
       50
176
     1
 90
       50
176
     1
 90
       50
176
     1
290
     0
176
     1
 90
       50
176
     1
 62
   256
176
     0
 40
1.0
176
     0
 90
        2
176
     1
  1
strokes_ogs.tif
176
     1
290
     0
176
     1
 40
1.0
176
     1
 40
1.0
176
     1
  0
VISUALSTYLE
  5
34
102
{ACAD_REACTORS
330
2A
102
}
330
2A
100
AcDbVisualStyle
  2
Conceptual
 70
     9
177
     3
291
     0
 70
    58
 90
        3
176
     1
 90
        2
176
     1
 90
        0
176
     1
 90
        0
176
     1
 40
0.6
176
     1
 40
30.0
176
     1
 62
     7
420
 16777215
176
     1
 90
        2
176
     1
 90
        2
176
     1
 62
     7
176
     1
 62
   257
176
     1
 90
        1
176
     1
 90
        1
176
     1
 40
179.0
176
     1
 90
        8
176
     1
 62
     7
176
     1
 40
1.0
176
     1
 90
        1
176
     1
 90
        6
176
     1
 90
        2
176
     1
 62
     7
176
     1
 90
        3
176
     1
 90
        0
176
     1
 90
        0
176
     1
290
     0
176
     1
 90
        1
176
     1
 40
0.0
176
     1
 90
        0
176
     1
290
     0
176
     1
290
     1
176
     1
290
     1
176
     1
290
     0
176
     1
290
     0
176
     1
290
     0
176
     1
290
     0
176
     1
290
     0
176
     1
290
     0
176
     1
 90
       50
176
     1
 40
0.0
176
     1
 40
1.0
176
     1
 90
        0
176
     1
 62
    18
420
        0
176
     1
 90
       50
176
     1
 90
        3
176
     1
 62
     5
420
      255
176
     1
290
     0
176
     1
 90
       50
176
     1
 90
       50
176
     1
 90
       50
176
     1
290
     0
176
     1
 90
       50
176
     1
 62
   256
176
     0
 40
1.0
176
     0
 90
        2
176
     1
  1
strokes_ogs.tif
176
     1
290
     0
176
     1
 40
1.0
176
     1
 40
1.0
176
     1
  0
VISUALSTYLE
  5
35
102
{ACAD_REACTORS
330
2A
102
}
330
2A
100
AcDbVisualStyle
  2
Dim
 70
    11
177
     3
291
     1
 70
    58
 90
        2
176
     1
 90
        2
176
     1
 90
        0
176
     1
 90
        0
176
     1
 40
0.6
176
     1
 40
30.0
176
     1
 62
     7
420
 16777215
176
     1
 90
        1
176
     1
 90
        4
176
     1
 62
     7
176
     1
 62
   257
176
     1
 90
        1
176
     1
 90
        1
176
     1
 40
1.0
176
     1
 90
        8
176
     1
 62
     7
176
     1
 40
1.0
176
     1
 90
        1
176
     1
 90
        6
176
     1
 90
        2
176
     1
 62
     7
176
     1
 90
        5
176
     1
 90
        0
176
     1
 90
        0
176
     1
290
     0
176
     1
 90
        1
176
     1
 40
-50.0
176
     1
 90
        0
176
     1
290
     0
176
     1
290
     1
176
     1
290
     1
176
     1
290
     0
176
     1
290
     0
176
     1
290
     0
176
     1
290
     0
176
     1
290
     0
176
     1
290
     0
176
     1
 90
       50
176
     1
 40
0.0
176
     1
 40
1.0
176
     1
 90
        0
176
     1
 62
    18
420
        0
176
     1
 90
       50
176
     1
 90
        3
176
     1
 62
     5
420
      255
176
     1
290
     0
176
     1
 90
       50
176
     1
 90
       50
176
     1
 90
       50
176
     1
290
     0
176
     1
 90
       50
176
     1
 62
   256
176
     0
 40
1.0
176
     0
 90
        2
176
     1
  1
strokes_ogs.tif
176
     1
290
     0
176
     1
 40
1.0
176
     1
 40
1.0
176
     1
  0
VISUALSTYLE
  5
3D
102
{ACAD_REACTORS
330
2A
102
}
330
2A
100
AcDbVisualStyle
  2
EdgeColorOff
 70
    22
177
     3
291
     1
 70
    58
 90
        2
176
     0
 90
        2
176
     0
 90
        0
176
     0
 90
        0
176
     0
 40
0.6
176
     0
 40
30.0
176
     0
 62
     7
420
 16777215
176
     0
 90
        1
176
     0
 90
        4
176
     0
 62
     7
176
     0
 62
   257
176
     0
 90
        1
176
     0
 90
        1
176
     0
 40
1.0
176
     0
 90
        8
176
     2
 62
     7
176
     0
 40
1.0
176
     0
 90
        1
176
     0
 90
        6
176
     0
 90
        2
176
     0
 62
     7
176
     0
 90
        5
176
     0
 90
        0
176
     0
 90
        0
176
     0
290
     0
176
     0
 90
        1
176
     0
 40
0.0
176
     0
 90
        0
176
     0
290
     0
176
     0
290
     1
176
     0
290
     1
176
     0
290
     0
176
     0
290
     0
176
     0
290
     0
176
     0
290
     0
176
     0
290
     0
176
     0
290
     0
176
     0
 90
       50
176
     0
 40
0.0
176
     0
 40
1.0
176
     0
 90
        0
176
     0
 62
    18
420
        0
176
     0
 90
       50
176
     0
 90
        3
176
     0
 62
     5
420
      255
176
     0
290
     0
176
     0
 90
       50
176
     0
 90
       50
176
     0
 90
       50
176
     0
290
     0
176
     0
 90
       50
176
     0
 62
   256
176
     0
 40
1.0
176
     0
 90
        2
176
     0
  1
strokes_ogs.tif
176
     0
290
     0
176
     0
 40
1.0
176
     0
 40
1.0
176
     0
  0
VISUALSTYLE
  5
39
102
{ACAD_REACTORS
330
2A
102
}
330
2A
100
AcDbVisualStyle
  2
Facepattern
 70
    15
177
     3
291
     1
 70
    58
 90
        2
176
     1
 90
        2
176
     1
 90
        0
176
     1
 90
        0
176
     1
 40
0.6
176
     1
 40
30.0
176
     1
 62
     7
420
 16777215
176
     1
 90
        1
176
     1
 90
        4
176
     1
 62
     7
176
     1
 62
   257
176
     1
 90
        1
176
     1
 90
        1
176
     1
 40
1.0
176
     1
 90
        8
176
     1
 62
     7
176
     1
 40
1.0
176
     1
 90
        1
176
     1
 90
        6
176
     1
 90
        2
176
     1
 62
     7
176
     1
 90
        5
176
     1
 90
        0
176
     1
 90
        0
176
     1
290
     0
176
     1
 90
        1
176
     1
 40
0.0
176
     1
 90
        0
176
     1
290
     0
176
     1
290
     1
176
     1
290
     1
176
     1
290
     0
176
     1
290
     0
176
     1
290
     0
176
     1
290
     0
176
     1
290
     0
176
     1
290
     0
176
     1
 90
       50
176
     1
 40
0.0
176
     1
 40
1.0
176
     1
 90
        0
176
     1
 62
    18
420
        0
176
     1
 90
       50
176
     1
 90
        3
176
     1
 62
     5
420
      255
176
     1
290
     0
176
     1
 90
       50
176
     1
 90
       50
176
     1
 90
       50
176
     1
290
     0
176
     1
 90
       50
176
     1
 62
   256
176
     0
 40
1.0
176
     0
 90
        2
176
     1
  1
strokes_ogs.tif
176
     1
290
     0
176
     1
 40
1.0
176
     1
 40
1.0
176
     1
  0
VISUALSTYLE
  5
2B
102
{ACAD_REACTORS
330
2A
102
}
330
2A
100
AcDbVisualStyle
  2
Flat
 70
     0
177
     3
291
     1
 70
    58
 90
        2
176
     1
 90
        1
176
     1
 90
        1
176
     1
 90
        2
176
     1
 40
0.6
176
     1
 40
30.0
176
     1
 62
     7
420
 16777215
176
     1
 90
        0
176
     1
 90
        0
176
     1
 62
     7
176
     1
 62
   257
176
     1
 90
        1
176
     1
 90
        1
176
     1
 40
1.0
176
     1
 90
        8
176
     1
 62
     7
176
     1
 40
1.0
176
     1
 90
        1
176
     1
 90
        6
176
     1
 90
        2
176
     1
 62
     7
176
     1
 90
        5
176
     1
 90
        0
176
     1
 90
        0
176
     1
290
     0
176
     1
 90
       13
176
     1
 40
0.0
176
     1
 90
        0
176
     1
290
     0
176
     1
290
     1
176
     1
290
     1
176
     1
290
     0
176
     1
290
     0
176
     1
290
     0
176
     1
290
     0
176
     1
290
     0
176
     1
290
     0
176
     1
 90
       50
176
     1
 40
0.0
176
     1
 40
1.0
176
     1
 90
        0
176
     1
 62
    18
420
        0
176
     1
 90
       50
176
     1
 90
        3
176
     1
 62
     5
420
      255
176
     1
290
     0
176
     1
 90
       50
176
     1
 90
       50
176
     1
 90
       50
176
     1
290
     0
176
     1
 90
       50
176
     1
 62
   256
176
     0
 40
1.0
176
     0
 90
        2
176
     1
  1
strokes_ogs.tif
176
     1
290
     0
176
     1
 40
1.0
176
     1
 40
1.0
176
     1
  0
VISUALSTYLE
  5
2C
102
{ACAD_REACTORS
330
2A
102
}
330
2A
100
AcDbVisualStyle
  2
FlatWithEdges
 70
     1
177
     3
291
     1
 70
    58
 90
        2
176
     1
 90
        1
176
     1
 90
        1
176
     1
 90
        2
176
     1
 40
0.6
176
     1
 40
30.0
176
     1
 62
     7
420
 16777215
176
     1
 90
        1
176
     1
 90
        0
176
     1
 62
     7
176
     1
 62
   257
176
     1
 90
        1
176
     1
 90
        1
176
     1
 40
1.0
176
     1
 90
        0
176
     1
 62
   257
176
     1
 40
1.0
176
     1
 90
        1
176
     1
 90
        6
176
     1
 90
        2
176
     1
 62
     7
176
     1
 90
        5
176
     1
 90
        0
176
     1
 90
        0
176
     1
290
     0
176
     1
 90
       13
176
     1
 40
0.0
176
     1
 90
        0
176
     1
290
     0
176
     1
290
     1
176
     1
290
     1
176
     1
290
     0
176
     1
290
     0
176
     1
290
     0
176
     1
290
     0
176
     1
290
     0
176
     1
290
     0
176
     1
 90
       50
176
     1
 40
0.0
176
     1
 40
1.0
176
     1
 90
        0
176
     1
 62
    18
420
        0
176
     1
 90
       50
176
     1
 90
        3
176
     1
 62
     5
420
      255
176
     1
290
     0
176
     1
 90
       50
176
     1
 90
       50
176
     1
 90
       50
176
     1
290
     0
176
     1
 90
       50
176
     1
 62
   256
176
     0
 40
1.0
176
     0
 90
        2
176
     1
  1
strokes_ogs.tif
176
     1
290
     0
176
     1
 40
1.0
176
     1
 40
1.0
176
     1
  0
VISUALSTYLE
  5
2D
102
{ACAD_REACTORS
330
2A
102
}
330
2A
100
AcDbVisualStyle
  2
Gouraud
 70
     2
177
     3
291
     1
 70
    58
 90
        2
176
     1
 90
        2
176
     1
 90
        1
176
     1
 90
        2
176
     1
 40
0.6
176
     1
 40
30.0
176
     1
 62
     7
420
 16777215
176
     1
 90
        0
176
     1
 90
        0
176
     1
 62
     7
176
     1
 62
   257
176
     1
 90
        1
176
     1
 90
        1
176
     1
 40
1.0
176
     1
 90
        0
176
     1
 62
     7
176
     1
 40
1.0
176
     1
 90
        1
176
     1
 90
        6
176
     1
 90
        2
176
     1
 62
     7
176
     1
 90
        5
176
     1
 90
        0
176
     1
 90
        0
176
     1
290
     0
176
     1
 90
       13
176
     1
 40
0.0
176
     1
 90
        0
176
     1
290
     0
176
     1
290
     1
176
     1
290
     1
176
     1
290
     0
176
     1
290
     0
176
     1
290
     0
176
     1
290
     0
176
     1
290
     0
176
     1
290
     0
176
     1
 90
       50
176
     1
 40
0.0
176
     1
 40
1.0
176
     1
 90
        0
176
     1
 62
    18
420
        0
176
     1
 90
       50
176
     1
 90
        3
176
     1
 62
     5
420
      255
176
     1
290
     0
176
     1
 90
       50
176
     1
 90
       50
176
     1
 90
       50
176
     1
290
     0
176
     1
 90
       50
176
     1
 62
   256
176
     0
 40
1.0
176
     0
 90
        2
176
     1
  1
strokes_ogs.tif
176
     1
290
     0
176
     1
 40
1.0
176
     1
 40
1.0
176
     1
  0
VISUALSTYLE
  5
2E
102
{ACAD_REACTORS
330
2A
102
}
330
2A
100
AcDbVisualStyle
  2
GouraudWithEdges
 70
     3
177
     3
291
     1
 70
    58
 90
        2
176
     1
 90
        2
176
     1
 90
        1
176
     1
 90
        2
176
     1
 40
0.6
176
     1
 40
30.0
176
     1
 62
     7
420
 16777215
176
     1
 90
        1
176
     1
 90
        0
176
     1
 62
     7
176
     1
 62
   257
176
     1
 90
        1
176
     1
 90
        1
176
     1
 40
1.0
176
     1
 90
        0
176
     1
 62
   257
176
     1
 40
1.0
176
     1
 90
        1
176
     1
 90
        6
176
     1
 90
        2
176
     1
 62
     7
176
     1
 90
        5
176
     1
 90
        0
176
     1
 90
        0
176
     1
290
     0
176
     1
 90
       13
176
     1
 40
0.0
176
     1
 90
        0
176
     1
290
     0
176
     1
290
     1
176
     1
290
     1
176
     1
290
     0
176
     1
290
     0
176
     1
290
     0
176
     1
290
     0
176
     1
290
     0
176
     1
290
     0
176
     1
 90
       50
176
     1
 40
0.0
176
     1
 40
1.0
176
     1
 90
        0
176
     1
 62
    18
420
        0
176
     1
 90
       50
176
     1
 90
        3
176
     1
 62
     5
420
      255
176
     1
290
     0
176
     1
 90
       50
176
     1
 90
       50
176
     1
 90
       50
176
     1
290
     0
176
     1
 90
       50
176
     1
 62
   256
176
     0
 40
1.0
176
     0
 90
        2
176
     1
  1
strokes_ogs.tif
176
     1
290
     0
176
     1
 40
1.0
176
     1
 40
1.0
176
     1
  0
VISUALSTYLE
  5
31
102
{ACAD_REACTORS
330
2A
102
}
330
2A
100
AcDbVisualStyle
  2
Hidden
 70
     6
177
     3
291
     0
 70
    58
 90
        1
176
     1
 90
        2
176
     1
 90
        2
176
     1
 90
        0
176
     1
 40
0.6
176
     1
 40
30.0
176
     1
 62
     7
420
 16777215
176
     1
 90
        2
176
     1
 90
        2
176
     1
 62
     7
176
     1
 62
   257
176
     1
 90
        2
176
     1
 90
        1
176
     1
 40
40.0
176
     1
 90
        0
176
     1
 62
   257
176
     1
 40
1.0
176
     1
 90
        1
176
     1
 90
        6
176
     1
 90
        2
176
     1
 62
     7
176
     1
 90
        3
176
     1
 90
        0
176
     1
 90
        0
176
     1
290
     0
176
     1
 90
        1
176
     1
 40
0.0
176
     1
 90
        0
176
     1
290
     0
176
     1
290
     1
176
     1
290
     1
176
     1
290
     0
176
     1
290
     0
176
     1
290
     0
176
     1
290
     0
176
     1
290
     0
176
     1
290
     0
176
     1
 90
       50
176
     1
 40
0.0
176
     1
 40
1.0
176
     1
 90
        0
176
     1
 62
    18
420
        0
176
     1
 90
       50
176
     1
 90
        3
176
     1
 62
     5
420
      255
176
     1
290
     0
176
     1
 90
       50
176
     1
 90
       50
176
     1
 90
       50
176
     1
290
     0
176
     1
 90
       50
176
     1
 62
   256
176
     0
 40
1.0
176
     0
 90
        2
176
     1
  1
strokes_ogs.tif
176
     1
290
     0
176
     1
 40
1.0
176
     1
 40
1.0
176
     1
  0
VISUALSTYLE
  5
3B
102
{ACAD_REACTORS
330
2A
102
}
330
2A
100
AcDbVisualStyle
  2
JitterOff
 70
    20
177
     3
291
     1
 70
    58
 90
        2
176
     0
 90
        2
176
     0
 90
        0
176
     0
 90
        0
176
     0
 40
0.6
176
     0
 40
30.0
176
     0
 62
     7
420
 16777215
176
     0
 90
        1
176
     0
 90
        4
176
     0
 62
     7
176
     0
 62
   257
176
     0
 90
        1
176
     0
 90
        1
176
     0
 40
1.0
176
     0
 90
       10
176
     2
 62
     7
176
     0
 40
1.0
176
     0
 90
        1
176
     0
 90
        6
176
     0
 90
        2
176
     0
 62
     7
176
     0
 90
        5
176
     0
 90
        0
176
     0
 90
        0
176
     0
290
     0
176
     0
 90
        1
176
     0
 40
0.0
176
     0
 90
        0
176
     0
290
     0
176
     0
290
     1
176
     0
290
     1
176
     0
290
     0
176
     0
290
     0
176
     0
290
     0
176
     0
290
     0
176
     0
290
     0
176
     0
290
     0
176
     0
 90
       50
176
     0
 40
0.0
176
     0
 40
1.0
176
     0
 90
        0
176
     0
 62
    18
420
        0
176
     0
 90
       50
176
     0
 90
        3
176
     0
 62
     5
420
      255
176
     0
290
     0
176
     0
 90
       50
176
     0
 90
       50
176
     0
 90
       50
176
     0
290
     0
176
     0
 90
       50
176
     0
 62
   256
176
     0
 40
1.0
176
     0
 90
        2
176
     0
  1
strokes_ogs.tif
176
     0
290
     0
176
     0
 40
1.0
176
     0
 40
1.0
176
     0
  0
VISUALSTYLE
  5
38
102
{ACAD_REACTORS
330
2A
102
}
330
2A
100
AcDbVisualStyle
  2
Linepattern
 70
    14
177
     3
291
     1
 70
    58
 90
        2
176
     1
 90
        2
176
     1
 90
        0
176
     1
 90
        0
176
     1
 40
0.6
176
     1
 40
30.0
176
     1
 62
     7
420
 16777215
176
     1
 90
        1
176
     1
 90
        4
176
     1
 62
     7
176
     1
 62
   257
176
     1
 90
        7
176
     1
 90
        7
176
     1
 40
1.0
176
     1
 90
        8
176
     1
 62
     7
176
     1
 40
1.0
176
     1
 90
        1
176
     1
 90
        6
176
     1
 90
        2
176
     1
 62
     7
176
     1
 90
        5
176
     1
 90
        0
176
     1
 90
        0
176
     1
290
     0
176
     1
 90
        1
176
     1
 40
0.0
176
     1
 90
        0
176
     1
290
     0
176
     1
290
     1
176
     1
290
     1
176
     1
290
     0
176
     1
290
     0
176
     1
290
     0
176
     1
290
     0
176
     1
290
     0
176
     1
290
     0
176
     1
 90
       50
176
     1
 40
0.0
176
     1
 40
1.0
176
     1
 90
        0
176
     1
 62
    18
420
        0
176
     1
 90
       50
176
     1
 90
        3
176
     1
 62
     5
420
      255
176
     1
290
     0
176
     1
 90
       50
176
     1
 90
       50
176
     1
 90
       50
176
     1
290
     0
176
     1
 90
       50
176
     1
 62
   256
176
     0
 40
1.0
176
     0
 90
        2
176
     1
  1
strokes_ogs.tif
176
     1
290
     0
176
     1
 40
1.0
176
     1
 40
1.0
176
     1
  0
VISUALSTYLE
  5
3C
102
{ACAD_REACTORS
330
2A
102
}
330
2A
100
AcDbVisualStyle
  2
OverhangOff
 70
    21
177
     3
291
     1
 70
    58
 90
        2
176
     0
 90
        2
176
     0
 90
        0
176
     0
 90
        0
176
     0
 40
0.6
176
     0
 40
30.0
176
     0
 62
     7
420
 16777215
176
     0
 90
        1
176
     0
 90
        4
176
     0
 62
     7
176
     0
 62
   257
176
     0
 90
        1
176
     0
 90
        1
176
     0
 40
1.0
176
     0
 90
        9
176
     2
 62
     7
176
     0
 40
1.0
176
     0
 90
        1
176
     0
 90
        6
176
     0
 90
        2
176
     0
 62
     7
176
     0
 90
        5
176
     0
 90
        0
176
     0
 90
        0
176
     0
290
     0
176
     0
 90
        1
176
     0
 40
0.0
176
     0
 90
        0
176
     0
290
     0
176
     0
290
     1
176
     0
290
     1
176
     0
290
     0
176
     0
290
     0
176
     0
290
     0
176
     0
290
     0
176
     0
290
     0
176
     0
290
     0
176
     0
 90
       50
176
     0
 40
0.0
176
     0
 40
1.0
176
     0
 90
        0
176
     0
 62
    18
420
        0
176
     0
 90
       50
176
     0
 90
        3
176
     0
 62
     5
420
      255
176
     0
290
     0
176
     0
 90
       50
176
     0
 90
       50
176
     0
 90
       50
176
     0
290
     0
176
     0
 90
       50
176
     0
 62
   256
176
     0
 40
1.0
176
     0
 90
        2
176
     0
  1
strokes_ogs.tif
176
     0
290
     0
176
     0
 40
1.0
176
     0
 40
1.0
176
     0
  0
VISUALSTYLE
  5
33
102
{ACAD_REACTORS
330
2A
102
}
330
2A
100
AcDbVisualStyle
  2
Realistic
 70
     8
177
     3
291
     0
 70
    58
 90
        2
176
     1
 90
        3
176
     1
 90
        0
176
     1
 90
        2
176
     1
 40
0.6
176
     1
 40
30.0
176
     1
 62
     7
420
 16777215
176
     1
 90
        0
176
     1
 90
        0
176
     1
 62
     7
176
     1
 62
   257
176
     1
 90
        1
176
     1
 90
        1
176
     1
 40
1.0
176
     1
 90
        8
176
     1
 62
   257
176
     1
 40
1.0
176
     1
 90
        1
176
     1
 90
        6
176
     1
 90
        2
176
     1
 62
     7
176
     1
 90
        3
176
     1
 90
        0
176
     1
 90
        0
176
     1
290
     0
176
     1
 90
       13
176
     1
 40
0.0
176
     1
 90
        0
176
     1
290
     0
176
     1
290
     1
176
     1
290
     1
176
     1
290
     0
176
     1
290
     0
176
     1
290
     0
176
     1
290
     0
176
     1
290
     0
176
     1
290
     0
176
     1
 90
       50
176
     1
 40
0.0
176
     1
 40
1.0
176
     1
 90
        0
176
     1
 62
    18
420
        0
176
     1
 90
       50
176
     1
 90
        3
176
     1
 62
     5
420
      255
176
     1
290
     0
176
     1
 90
       50
176
     1
 90
       50
176
     1
 90
       50
176
     1
290
     0
176
     1
 90
       50
176
     1
 62
   256
176
     0
 40
1.0
176
     0
 90
        2
176
     1
  1
strokes_ogs.tif
176
     1
290
     0
176
     1
 40
1.0
176
     1
 40
1.0
176
     1
  0
VISUALSTYLE
  5
42
102
{ACAD_REACTORS
330
2A
102
}
330
2A
100
AcDbVisualStyle
  2
Shaded
 70
    27
177
     3
291
     0
 70
    58
 90
        2
176
     1
 90
        2
176
     1
 90
        1
176
     1
 90
        2
176
     1
 40
0.6
176
     1
 40
30.0
176
     1
 62
     7
420
 16777215
176
     1
 90
        0
176
     1
 90
        4
176
     1
 62
     7
176
     1
 62
   257
176
     1
 90
        1
176
     1
 90
        1
176
     1
 40
1.0
176
     1
 90
        8
176
     1
 62
   257
176
     1
 40
1.0
176
     1
 90
        1
176
     1
 90
        6
176
     1
 90
        2
176
     1
 62
     8
420
  7895160
176
     1
 90
        3
176
     1
 90
        0
176
     1
 90
        0
176
     1
290
     0
176
     1
 90
        5
176
     1
 40
0.0
176
     1
 90
        0
176
     1
290
     0
176
     1
290
     1
176
     1
290
     1
176
     1
290
     0
176
     1
290
     0
176
     1
290
     0
176
     1
290
     0
176
     1
290
     0
176
     1
290
     0
176
     1
 90
       50
176
     1
 40
0.0
176
     1
 40
1.0
176
     1
 90
        0
176
     1
 62
    18
420
        0
176
     1
 90
       50
176
     1
 90
        3
176
     1
 62
     5
420
      255
176
     1
290
     0
176
     1
 90
       50
176
     1
 90
       50
176
     1
 90
       50
176
     1
290
     0
176
     1
 90
       50
176
     1
 62
   256
176
     0
 40
1.0
176
     0
 90
        2
176
     1
  1
strokes_ogs.tif
176
     1
290
     0
176
     1
 40
1.0
176
     1
 40
1.0
176
     1
  0
VISUALSTYLE
  5
41
102
{ACAD_REACTORS
330
2A
102
}
330
2A
100
AcDbVisualStyle
  2
Shaded with edges
 70
    26
177
     3
291
     0
 70
    58
 90
        2
176
     1
 90
        2
176
     1
 90
        1
176
     1
 90
        2
176
     1
 40
0.6
176
     1
 40
30.0
176
     1
 62
     7
420
 16777215
176
     1
 90
        1
176
     1
 90
       10
176
     1
 62
     7
176
     1
 62
   257
176
     1
 90
        2
176
     1
 90
        1
176
     1
 40
1.0
176
     1
 90
        8
176
     1
 62
   257
176
     1
 40
1.0
176
     1
 90
        1
176
     1
 90
        6
176
     1
 90
        2
176
     1
 62
     7
176
     1
 90
        3
176
     1
 90
        0
176
     1
 90
        0
176
     1
290
     0
176
     1
 90
        5
176
     1
 40
0.0
176
     1
 90
        0
176
     1
290
     0
176
     1
290
     1
176
     1
290
     1
176
     1
290
     0
176
     1
290
     0
176
     1
290
     0
176
     1
290
     0
176
     1
290
     0
176
     1
290
     0
176
     1
 90
       50
176
     1
 40
0.0
176
     1
 40
1.0
176
     1
 90
        0
176
     1
 62
    18
420
        0
176
     1
 90
       50
176
     1
 90
        3
176
     1
 62
     5
420
      255
176
     1
290
     0
176
     1
 90
       50
176
     1
 90
       50
176
     1
 90
       50
176
     1
290
     0
176
     1
 90
       50
176
     1
 62
   256
176
     0
 40
1.0
176
     0
 90
        2
176
     1
  1
strokes_ogs.tif
176
     1
290
     0
176
     1
 40
1.0
176
     1
 40
1.0
176
     1
  0
VISUALSTYLE
  5
3E
102
{ACAD_REACTORS
330
2A
102
}
330
2A
100
AcDbVisualStyle
  2
Shades of Gray
 70
    23
177
     3
291
     0
 70
    58
 90
        2
176
     1
 90
        2
176
     1
 90
        3
176
     1
 90
        0
176
     1
 40
0.6
176
     1
 40
30.0
176
     1
 62
     7
420
 16777215
176
     1
 90
        2
176
     1
 90
        2
176
     1
 62
     7
176
     1
 62
     7
176
     1
 90
        1
176
     1
 90
        1
176
     1
 40
40.0
176
     1
 90
        8
176
     1
 62
     7
176
     1
 40
1.0
176
     1
 90
        1
176
     1
 90
        6
176
     1
 90
        2
176
     1
 62
     7
176
     1
 90
        3
176
     1
 90
        0
176
     1
 90
        0
176
     1
290
     0
176
     1
 90
        1
176
     1
 40
0.0
176
     1
 90
        0
176
     1
290
     0
176
     1
290
     1
176
     1
290
     1
176
     1
290
     0
176
     1
290
     0
176
     1
290
     0
176
     1
290
     0
176
     1
290
     0
176
     1
290
     0
176
     1
 90
       50
176
     1
 40
0.0
176
     1
 40
1.0
176
     1
 90
        0
176
     1
 62
    18
420
        0
176
     1
 90
       50
176
     1
 90
        3
176
     1
 62
     5
420
      255
176
     1
290
     0
176
     1
 90
       50
176
     1
 90
       50
176
     1
 90
       50
176
     1
290
     0
176
     1
 90
       50
176
     1
 62
   256
176
     0
 40
1.0
176
     0
 90
        2
176
     1
  1
strokes_ogs.tif
176
     1
290
     0
176
     1
 40
1.0
176
     1
 40
1.0
176
     1
  0
VISUALSTYLE
  5
3F
102
{ACAD_REACTORS
330
2A
102
}
330
2A
100
AcDbVisualStyle
  2
Sketchy
 70
    24
177
     3
291
     0
 70
    58
 90
        1
176
     1
 90
        2
176
     1
 90
        2
176
     1
 90
        0
176
     1
 40
0.6
176
     1
 40
30.0
176
     1
 62
     7
420
 16777215
176
     1
 90
        2
176
     1
 90
        2
176
     1
 62
     7
176
     1
 62
     7
176
     1
 90
        1
176
     1
 90
        1
176
     1
 40
40.0
176
     1
 90
       11
176
     1
 62
     7
176
     1
 40
1.0
176
     1
 90
        1
176
     1
 90
        6
176
     1
 90
        2
176
     1
 62
     7
176
     1
 90
        6
176
     1
 90
        0
176
     1
 90
        0
176
     1
290
     0
176
     1
 90
        1
176
     1
 40
0.0
176
     1
 90
        0
176
     1
290
     0
176
     1
290
     1
176
     1
290
     1
176
     1
290
     0
176
     1
290
     0
176
     1
290
     0
176
     1
290
     0
176
     1
290
     0
176
     1
290
     0
176
     1
 90
       50
176
     1
 40
0.0
176
     1
 40
1.0
176
     1
 90
        0
176
     1
 62
    18
420
        0
176
     1
 90
       50
176
     1
 90
        3
176
     1
 62
     5
420
      255
176
     1
290
     0
176
     1
 90
       50
176
     1
 90
       50
176
     1
 90
       50
176
     1
290
     0
176
     1
 90
       50
176
     1
 62
   256
176
     0
 40
1.0
176
     0
 90
        2
176
     1
  1
strokes_ogs.tif
176
     1
290
     0
176
     1
 40
1.0
176
     1
 40
1.0
176
     1
  0
VISUALSTYLE
  5
37
102
{ACAD_REACTORS
330
2A
102
}
330
2A
100
AcDbVisualStyle
  2
Thicken
 70
    13
177
     3
291
     1
 70
    58
 90
        2
176
     1
 90
        2
176
     1
 90
        0
176
     1
 90
        0
176
     1
 40
0.6
176
     1
 40
30.0
176
     1
 62
     7
420
 16777215
176
     1
 90
        1
176
     1
 90
        4
176
     1
 62
     7
176
     1
 62
   257
176
     1
 90
        1
176
     1
 90
        1
176
     1
 40
1.0
176
     1
 90
       12
176
     1
 62
     7
176
     1
 40
1.0
176
     1
 90
        1
176
     1
 90
        6
176
     1
 90
        2
176
     1
 62
     7
176
     1
 90
        5
176
     1
 90
        0
176
     1
 90
        0
176
     1
290
     0
176
     1
 90
        1
176
     1
 40
0.0
176
     1
 90
        0
176
     1
290
     0
176
     1
290
     1
176
     1
290
     1
176
     1
290
     0
176
     1
290
     0
176
     1
290
     0
176
     1
290
     0
176
     1
290
     0
176
     1
290
     0
176
     1
 90
       50
176
     1
 40
0.0
176
     1
 40
1.0
176
     1
 90
        0
176
     1
 62
    18
420
        0
176
     1
 90
       50
176
     1
 90
        3
176
     1
 62
     5
420
      255
176
     1
290
     0
176
     1
 90
       50
176
     1
 90
       50
176
     1
 90
       50
176
     1
290
     0
176
     1
 90
       50
176
     1
 62
   256
176
     0
 40
1.0
176
     0
 90
        2
176
     1
  1
strokes_ogs.tif
176
     1
290
     0
176
     1
 40
1.0
176
     1
 40
1.0
176
     1
  0
VISUALSTYLE
  5
30
102
{ACAD_REACTORS
330
2A
102
}
330
2A
100
AcDbVisualStyle
  2
Wireframe
 70
     5
177
     3
291
     0
 70
    58
 90
        0
176
     1
 90
        2
176
     1
 90
        0
176
     1
 90
        0
176
     1
 40
0.6
176
     1
 40
30.0
176
     1
 62
     7
420
 16777215
176
     1
 90
        1
176
     1
 90
        4
176
     1
 62
     7
176
     1
 62
   257
176
     1
 90
        1
176
     1
 90
        1
176
     1
 40
1.0
176
     1
 90
        0
176
     1
 62
   257
176
     1
 40
1.0
176
     1
 90
        1
176
     1
 90
        6
176
     1
 90
        2
176
     1
 62
     7
176
     1
 90
        3
176
     1
 90
        0
176
     1
 90
        0
176
     1
290
     0
176
     1
 90
        1
176
     1
 40
0.0
176
     1
 90
        0
176
     1
290
     0
176
     1
290
     1
176
     1
290
     1
176
     1
290
     0
176
     1
290
     0
176
     1
290
     0
176
     1
290
     0
176
     1
290
     0
176
     1
290
     0
176
     1
 90
       50
176
     1
 40
0.0
176
     1
 40
1.0
176
     1
 90
        0
176
     1
 62
    18
420
        0
176
     1
 90
       50
176
     1
 90
        3
176
     1
 62
     5
420
      255
176
     1
290
     0
176
     1
 90
       50
176
     1
 90
       50
176
     1
 90
       50
176
     1
290
     0
176
     1
 90
       50
176
     1
 62
   256
176
     0
 40
1.0
176
     0
 90
        2
176
     1
  1
strokes_ogs.tif
176
     1
290
     0
176
     1
 40
1.0
176
     1
 40
1.0
176
     1
  0
VISUALSTYLE
  5
40
102
{ACAD_REACTORS
330
2A
102
}
330
2A
100
AcDbVisualStyle
  2
X-Ray
 70
    25
177
     3
291
     0
 70
    58
 90
        2
176
     1
 90
        2
176
     1
 90
        1
176
     1
 90
        1
176
     1
 40
0.5
176
     1
 40
30.0
176
     1
 62
     7
420
 16777215
176
     1
 90
        1
176
     1
 90
        0
176
     1
 62
     7
176
     1
 62
   257
176
     1
 90
        1
176
     1
 90
        1
176
     1
 40
1.0
176
     1
 90
        8
176
     1
 62
     7
176
     1
 40
1.0
176
     1
 90
        1
176
     1
 90
        6
176
     1
 90
        2
176
     1
 62
     7
176
     1
 90
        3
176
     1
 90
        0
176
     1
 90
        0
176
     1
290
     0
176
     1
 90
       13
176
     1
 40
0.0
176
     1
 90
        0
176
     1
290
     0
176
     1
290
     1
176
     1
290
     1
176
     1
290
     0
176
     1
290
     0
176
     1
290
     0
176
     1
290
     0
176
     1
290
     0
176
     1
290
     0
176
     1
 90
       50
176
     1
 40
0.0
176
     1
 40
1.0
176
     1
 90
        0
176
     1
 62
    18
420
        0
176
     1
 90
       50
176
     1
 90
        3
176
     1
 62
     5
420
      255
176
     1
290
     0
176
     1
 90
       50
176
     1
 90
       50
176
     1
 90
       50
176
     1
290
     0
176
     1
 90
       50
176
     1
 62
   256
176
     0
 40
1.0
176
     0
 90
        2
176
     1
  1
strokes_ogs.tif
176
     1
290
     0
176
     1
 40
1.0
176
     1
 40
1.0
176
     1
  0
DICTIONARYVAR
  5
35D
102
{ACAD_REACTORS
330
35C
102
}
330
35C
100
DictionaryVariables
280
     0
  1
1:1
  0
DICTIONARYVAR
  5
366
102
{ACAD_REACTORS
330
35C
102
}
330
35C
100
DictionaryVariables
280
     0
  1
3.500000
  0
DICTIONARYVAR
  5
367
102
{ACAD_REACTORS
330
35C
102
}
330
35C
100
DictionaryVariables
280
     0
  1
acadiso.lin
  0
DICTIONARYVAR
  5
362
102
{ACAD_REACTORS
330
35C
102
}
330
35C
100
DictionaryVariables
280
     0
  1
Standard
  0
DICTIONARYVAR
  5
361
102
{ACAD_REACTORS
330
35C
102
}
330
35C
100
DictionaryVariables
280
     0
  1
Standard
  0
DICTIONARYVAR
  5
365
102
{ACAD_REACTORS
330
35C
102
}
330
35C
100
DictionaryVariables
280
     0
  1
0
  0
DICTIONARY
  5
35E
330
5A
100
AcDbDictionary
280
     1
281
     1
  3
ACAD_ROUNDTRIP_2008_TABLESTYLE_CELLSTYLEMAP
360
35F
  0
CELLSTYLEMAP
  5
35F
102
{ACAD_REACTORS
330
35E
102
}
330
35E
100
AcDbCellStyleMap
 90
        3
300
CELLSTYLE
  1
TABLEFORMAT_BEGIN
 90
        5
170
     1
 91
        0
 92
    32768
 62
   257
 93
        1
300
CONTENTFORMAT
  1
CONTENTFORMAT_BEGIN
 90
        0
 91
        0
 92
        4
 93
        0
300

 40
0.0
140
1.0
 94
        5
 62
     0
340
11
144
6.0
309
CONTENTFORMAT_END
171
     1
301
MARGIN
  1
CELLMARGIN_BEGIN
 40
1.5
 40
1.5
 40
1.5
 40
1.5
 40
1.5
 40
1.5
309
CELLMARGIN_END
 94
        6
 95
        1
302
GRIDFORMAT
  1
GRIDFORMAT_BEGIN
 90
        0
 91
        1
 62
     0
 92
       -2
340
14
 93
        0
 40
0.045
309
GRIDFORMAT_END
 95
        2
302
GRIDFORMAT
  1
GRIDFORMAT_BEGIN
 90
        0
 91
        1
 62
     0
 92
       -2
340
14
 93
        0
 40
0.045
309
GRIDFORMAT_END
 95
        4
302
GRIDFORMAT
  1
GRIDFORMAT_BEGIN
 90
        0
 91
        1
 62
     0
 92
       -2
340
14
 93
        0
 40
0.045
309
GRIDFORMAT_END
 95
        8
302
GRIDFORMAT
  1
GRIDFORMAT_BEGIN
 90
        0
 91
        1
 62
     0
 92
       -2
340
14
 93
        0
 40
0.045
309
GRIDFORMAT_END
 95
       16
302
GRIDFORMAT
  1
GRIDFORMAT_BEGIN
 90
        0
 91
        1
 62
     0
 92
       -2
340
14
 93
        0
 40
0.045
309
GRIDFORMAT_END
 95
       32
302
GRIDFORMAT
  1
GRIDFORMAT_BEGIN
 90
        0
 91
        1
 62
     0
 92
       -2
340
14
 93
        0
 40
0.045
309
GRIDFORMAT_END
309
TABLEFORMAT_END
  1
CELLSTYLE_BEGIN
 90
        1
 91
        1
300
_TITLE
309
CELLSTYLE_END
300
CELLSTYLE
  1
TABLEFORMAT_BEGIN
 90
        5
170
     1
 91
        0
 92
        0
 62
   257
 93
        1
300
CONTENTFORMAT
  1
CONTENTFORMAT_BEGIN
 90
        0
 91
        0
 92
        4
 93
        0
300

 40
0.0
140
1.0
 94
        5
 62
     0
340
11
144
4.5
309
CONTENTFORMAT_END
171
     1
301
MARGIN
  1
CELLMARGIN_BEGIN
 40
1.5
 40
1.5
 40
1.5
 40
1.5
 40
1.5
 40
1.5
309
CELLMARGIN_END
 94
        6
 95
        1
302
GRIDFORMAT
  1
GRIDFORMAT_BEGIN
 90
        0
 91
        1
 62
     0
 92
       -2
340
14
 93
        0
 40
0.045
309
GRIDFORMAT_END
 95
        2
302
GRIDFORMAT
  1
GRIDFORMAT_BEGIN
 90
        0
 91
        1
 62
     0
 92
       -2
340
14
 93
        0
 40
0.045
309
GRIDFORMAT_END
 95
        4
302
GRIDFORMAT
  1
GRIDFORMAT_BEGIN
 90
        0
 91
        1
 62
     0
 92
       -2
340
14
 93
        0
 40
0.045
309
GRIDFORMAT_END
 95
        8
302
GRIDFORMAT
  1
GRIDFORMAT_BEGIN
 90
        0
 91
        1
 62
     0
 92
       -2
340
14
 93
        0
 40
0.045
309
GRIDFORMAT_END
 95
       16
302
GRIDFORMAT
  1
GRIDFORMAT_BEGIN
 90
        0
 91
        1
 62
     0
 92
       -2
340
14
 93
        0
 40
0.045
309
GRIDFORMAT_END
 95
       32
302
GRIDFORMAT
  1
GRIDFORMAT_BEGIN
 90
        0
 91
        1
 62
     0
 92
       -2
340
14
 93
        0
 40
0.045
309
GRIDFORMAT_END
309
TABLEFORMAT_END
  1
CELLSTYLE_BEGIN
 90
        2
 91
        1
300
_HEADER
309
CELLSTYLE_END
300
CELLSTYLE
  1
TABLEFORMAT_BEGIN
 90
        5
170
     1
 91
        0
 92
        0
 62
   257
 93
        1
300
CONTENTFORMAT
  1
CONTENTFORMAT_BEGIN
 90
        0
 91
        0
 92
        4
 93
        0
300

 40
0.0
140
1.0
 94
        2
 62
     0
340
11
144
4.5
309
CONTENTFORMAT_END
171
     1
301
MARGIN
  1
CELLMARGIN_BEGIN
 40
1.5
 40
1.5
 40
1.5
 40
1.5
 40
1.5
 40
1.5
309
CELLMARGIN_END
 94
        6
 95
        1
302
GRIDFORMAT
  1
GRIDFORMAT_BEGIN
 90
        0
 91
        1
 62
     0
 92
       -2
340
14
 93
        0
 40
0.045
309
GRIDFORMAT_END
 95
        2
302
GRIDFORMAT
  1
GRIDFORMAT_BEGIN
 90
        0
 91
        1
 62
     0
 92
       -2
340
14
 93
        0
 40
0.045
309
GRIDFORMAT_END
 95
        4
302
GRIDFORMAT
  1
GRIDFORMAT_BEGIN
 90
        0
 91
        1
 62
     0
 92
       -2
340
14
 93
        0
 40
0.045
309
GRIDFORMAT_END
 95
        8
302
GRIDFORMAT
  1
GRIDFORMAT_BEGIN
 90
        0
 91
        1
 62
     0
 92
       -2
340
14
 93
        0
 40
0.045
309
GRIDFORMAT_END
 95
       16
302
GRIDFORMAT
  1
GRIDFORMAT_BEGIN
 90
        0
 91
        1
 62
     0
 92
       -2
340
14
 93
        0
 40
0.045
309
GRIDFORMAT_END
 95
       32
302
GRIDFORMAT
  1
GRIDFORMAT_BEGIN
 90
        0
 91
        1
 62
     0
 92
       -2
340
14
 93
        0
 40
0.045
309
GRIDFORMAT_END
309
TABLEFORMAT_END
  1
CELLSTYLE_BEGIN
 90
        3
 91
        2
300
_DATA
309
CELLSTYLE_END
  0
ENDSEC
  0
EOF
